Долгожданный / Hum Kaun Hai (Рави Шарма Шанкар / Ravi Sharma Shankar) [2004, Индия, Мистика, драма, DVDRip-AVC] DVO (Арена)

Ответить на тему
 
Автор Сообщение

user ®

Стаж: 12 лет

Сообщений: 15092

Пост Пост: #1 от 07-Мар-2015 13:00

[Цитировать]

Долгожданный / Hum Kaun Hai
Страна: Индия
Жанр: Мистика, драма
Год выпуска: 2004
Продолжительность: 01:51:37
Перевод: Любительский (двухголосый закадровый) Арена
Cубтитры: нет
Режиссер: Рави Шарма Шанкар / Ravi Sharma Shankar
В ролях: Амитабх Баччан, Димпл Кападия, Дхармендра, Моушуми Чаттерджи, Хансика Мотвани, Мастер Аман, Прем Чопра, Викрам Гокхале, Сухасини Мулай, Абхиджит Лахири, Сима Рахмани, Фазал Рахман, Мастер Вики
Описание: Майор Франк Джон Вильямс разлучен с женой Сандрой и двумя детьми: Сарой и Дэвидом. Он числится в списках пропавших без вести и, вероятнее всего, погиб участвуя в боевых действиях. В доме Сандры начинают происходить странные события. Но верная жена не теряет надежды на возвращение любимого мужа. Наконец Вильямс возвращается, но что-то с ним не так…
Доп. информация: Релиз: Кинозал
Сведение звука: oktober (Спасибо!)
Сэмпл: http://multi-up.com/1036842
Качество видео: DVDRip-AVC
Формат видео: MKV
Видео: 704 x 320 (2.200:1), 23.976 fps, AVC, ~1536 Kbps, 0.284 bits/pixel
Аудио: Русский, 48.0 KHz, AC3, 2 ch, 192 Kbps
MediaInfo
General
Complete name : F:\Dolgozhdanniy.2004.DVDRip.X264.oktober.mkv
Format : Matroska
File size : 1.37 GiB
Duration : 1h 51mn
Overall bit rate : 1 763 Kbps
Encoded date : UTC 2015-02-03 08:49:25
Writing application : mkvmerge v5.0.0 ('Die Wahre Liebe') built on Sep 25 2011 20:33:49
Writing library : libebml v1.2.2 + libmatroska v1.3.0
Video
ID : 1
Format : AVC
Format/Info : Advanced Video Codec
Format profile : High@L3.0
Format settings, CABAC : Yes
Format settings, ReFrames : 5 frames
Muxing mode : Container profile=Unknown@3.0
Codec ID : V_MPEG4/ISO/AVC
Duration : 1h 51mn
Bit rate : 1 536 Kbps
Nominal bit rate : 1 565 Kbps
Width : 704 pixels
Height : 320 pixels
Display aspect ratio : 2.2
Frame rate : 23.976 fps
Resolution : 24 bits
Colorimetry : 4:2:0
Scan type : Progressive
Bits/(Pixel*Frame) : 0.284
Stream size : 1.20 GiB (87%)
Writing library : x264 core 125 r2200 999b753
Encoding settings : cabac=1 / ref=5 / deblock=1:-1:-1 / analyse=0x3:0x113 / me=umh / subme=8 / psy=1 / psy_rd=1.00:0.10 / mixed_ref=1 / me_range=16 / chroma_me=1 / trellis=1 / 8x8dct=1 / cqm=0 / deadzone=21,11 / fast_pskip=1 / chroma_qp_offset=-3 / threads=6 / lookahead_threads=1 / sliced_threads=0 / nr=0 / decimate=1 / interlaced=0 / bluray_compat=0 / constrained_intra=0 / bframes=3 / b_pyramid=2 / b_adapt=2 / b_bias=0 / direct=3 / weightb=1 / open_gop=0 / weightp=2 / keyint=250 / keyint_min=23 / scenecut=40 / intra_refresh=0 / rc_lookahead=50 / rc=abr / mbtree=1 / bitrate=1565 / ratetol=1.0 / qcomp=0.60 / qpmin=0 / qpmax=69 / qpstep=4 / ip_ratio=1.40 / aq=1:1.00
Language : Russian
Audio
ID : 2
Format : AC-3
Format/Info : Audio Coding 3
Codec ID : A_AC3
Duration : 1h 51mn
Bit rate mode : Constant
Bit rate : 192 Kbps
Channel(s) : 2 channels
Channel positions : L R
Sampling rate : 48.0 KHz
Stream size : 153 MiB (11%)
Language : Russian
Скриншоты
Скачать

Скачать торрент! Долгожданный / Hum Kaun Hai (Рави Шарма Шанкар / Ravi Sharma Shankar) [2004, Индия, Мистика, драма, DVDRip-AVC] DVO (Арена)

Как скачивать? · Что такое торрент? · Рейтинг и ограничения

Сайт не распространяет и не хранит электронные версии произведений, а лишь предоставляет доступ к создаваемому пользователями каталогу ссылок на торрент-файлы, которые содержат только списки хеш-сумм

[Профиль] [ЛС]
Показать сообщения:    
Ответить на тему

Текущее время: Сегодня 18:24

Часовой пояс: GMT + 4



Вы не можете начинать темы
Вы не можете отвечать на сообщения
Вы не можете редактировать свои сообщения
Вы не можете удалять свои сообщения
Вы не можете голосовать в опросах
Вы не можете прикреплять файлы к сообщениям
Вы не можете скачивать файлы