Гадкий / Урод / Ugly (Анураг Кашьяп / Anurag Kashyap) [2014, Индия, Детектив, триллер, DVDRip] DVO (DeadSno & den904)

Ответить на тему
 
Автор Сообщение

user ®

Стаж: 12 лет

Сообщений: 15092

Пост Пост: #1 от 07-Мар-2015 13:00

[Цитировать]

Урод / Ugly
-Страна: Индия
Жанр: Детектив, триллер
Год выпуска: 2014
Продолжительность: 02:06:43--Перевод: Любительский (двухголосый закадровый) - DeadSno & den904
Субтитры: Нет
Перевод и редакция: Honey&Haseena--Режиссер: Анураг Кашьяп / Anurag Kashyap-В ролях: Рахул Бхат, Джаянт Гадекар, Абир Госвами, Сандеш Джадхав, Сиддхант Капур, Теджасвини Колхапуре, Гириш Кулкарни, Мурари, Ронит Рой--Описание: Неудачник-актёр Рахул по собственной глупости становится виновным в похищении своей дочери Кали. Девочка была похищена средь бела дня, никто её не видел и никто ничем не может помочь. За расследование данного дела берётся суровый полицейский Шаумик, нынешний муж экс-жены Рахула. Он усердно пытается вычислить урода, совершившего столь ужасное преступление и создаёт целую спец. команду для его поимки. В поисках девочки, команда раскрывает всё больше и больше ужасных тайн, скрывавшихся в самом окружении девочки... (c) Honey- --Качество видео: BDRip (исх. Blu-Ray Disc 50 GB Team Telly)
Формат видео: AVI-Видео: 720x304 (2.37:1), 24 fps, XviD build 50 ~1205 kbps avg, 0.23 bit/pixel
Аудио #1: 48 kHz, AC3 Dolby Digital, 2/0 (L,R) ch, ~192 kbps [Russian]
Аудио #2: 44.1 kHz, AC3 Dolby Digital, 2/0 (L,R) ch, ~192 kbps [Hindi]--Сэмпл / Sample--Озвучивание: DeadSno & den904 (спасибо!)
Перевод на русский язык: Honey&Haseena (спасибо!)
-Спасибочки большое Александрe Савченко за спонсирование озвучки!-- --

Скриншот с названием:
-
Скриншоты:
-
MI
Общее
Полное имя : W:\Urod.2014.BDRip.XviD.Kolobok.Honey.Haseena.avi
Формат : AVI
Формат/Информация : Audio Video Interleave
Размер файла : 1,41 Гбайт
Продолжительность : 2 ч. 6 м.
Общий поток : 1604 Кбит/сек
Программа кодирования : VirtualDubMod 1.5.10.3 | www.virtualdub-fr.org || (build 2550/release)
Библиотека кодирования : VirtualDubMod build 2550/release
Видео
Идентификатор : 0
Формат : MPEG-4 Visual
Профиль формата : Advanced Simple@L5
Параметр BVOP формата : 2
Параметр QPel формата : Нет
Параметр GMC формата : Без точки перехода
Параметр матрицы формата : Default (H.263)
Идентификатор кодека : XVID
Идентификатор кодека/Подсказка : XviD
Продолжительность : 2 ч. 6 м.
Битрейт : 1206 Кбит/сек
Ширина : 720 пикселей
Высота : 304 пикселя
Соотношение сторон : 2,35:1
Частота кадров : 24,000 кадра/сек
Цветовое пространство : YUV
Субдискретизация насыщенности : 4:2:0
Битовая глубина : 8 бит
Тип развёртки : Прогрессивная
Метод сжатия : С потерями
Бит/(Пиксели*Кадры) : 0.230
Размер потока : 1,06 Гбайт (75%)
Библиотека кодирования : XviD 1.2.1 (UTC 2008-12-04)
Аудио #1
Идентификатор : 1
Формат : AC-3
Формат/Информация : Audio Coding 3
Расширение режима : CM (complete main)
Параметр Endianness формата : Big
Идентификатор кодека : 2000
Продолжительность : 2 ч. 6 м.
Вид битрейта : Постоянный
Битрейт : 192 Кбит/сек
Каналы : 2 канала
Расположение каналов : Front: L R
Частота : 48,0 КГц
Битовая глубина : 16 бит
Метод сжатия : С потерями
Размер потока : 173 Мбайт (12%)
Выравнивание : Разделение по промежуткам
Продолжительность промежутка : 42 мс. (1,00 видеокадр)
Время предзагрузки промежутка : 500 мс.
Аудио #2
Идентификатор : 2
Формат : AC-3
Формат/Информация : Audio Coding 3
Расширение режима : CM (complete main)
Параметр Endianness формата : Big
Идентификатор кодека : 2000
Продолжительность : 2 ч. 6 м.
Вид битрейта : Постоянный
Битрейт : 192 Кбит/сек
Каналы : 2 канала
Расположение каналов : Front: L R
Частота : 44,1 КГц
Битовая глубина : 16 бит
Метод сжатия : С потерями
Размер потока : 173 Мбайт (12%)
Выравнивание : Разделение по промежуткам
Продолжительность промежутка : 42 мс. (1,00 видеокадр)
Время предзагрузки промежутка : 500 мс.
-
Скачать

Скачать торрент! Гадкий / Урод / Ugly (Анураг Кашьяп / Anurag Kashyap) [2014, Индия, Детектив, триллер, DVDRip] DVO (DeadSno & den904)

Как скачивать? · Что такое торрент? · Рейтинг и ограничения

Сайт не распространяет и не хранит электронные версии произведений, а лишь предоставляет доступ к создаваемому пользователями каталогу ссылок на торрент-файлы, которые содержат только списки хеш-сумм

[Профиль] [ЛС]
Показать сообщения:    
Ответить на тему

Текущее время: Сегодня 06:45

Часовой пояс: GMT + 4



Вы не можете начинать темы
Вы не можете отвечать на сообщения
Вы не можете редактировать свои сообщения
Вы не можете удалять свои сообщения
Вы не можете голосовать в опросах
Вы не можете прикреплять файлы к сообщениям
Вы не можете скачивать файлы