Свободная от мужчин (Евгений Соколов) [1992, криминал, DVB, AVC]

Ответить на тему
 
Автор Сообщение

user ®

Стаж: 7 лет 7 месяцев

Сообщений: 20008

Пост Пост: #1 от 07-Мар-2015 00:21

[Цитировать]

Свободная от мужчин
Жанр: криминал
Год выпуска: 1992
Продолжительность: 01:11:18-Режиссёр: Евгений Соколов
В ролях: Ирина Литт, Алексей Дайнеко, Александр Ковалёв, Иван Шабалтас, Владимир Борисов, Шавкат Газиев, Влада Герасева, Юлия Свежакова, Анна Дайнеко, Ирина Юшенкова, Александр Лозовский, Марфа Перцева-Описание: Провалившись на вступительных экзаменах в театральный институт и сполна вкусив "прелестей" столичной жизни, провинциальная девочка пошла по рукам... Вскоре ей удалось заполучить в качестве ухажера крупного чиновника Валентина Феликсовича-Доп. информация:
Присутствуют баннеры анонсов (смотрим третий скрин)
Названия торговых фирм замазаны (смотрим четвёртый скрин)
За запись фильма большое спасибо
[url=http://***/forum/profile.php?mode=viewprofile&u=1793838]xfiles[/url]-Сэмпл: минута35сек-Качество видео: DVB
Формат видео: MKV
Видео: AVC, 720x576, 4:3, 25,000 кадра/сек, 3504 Кбит/сек
Аудио: MP2, 48,0 КГц, 256 Кбит/сек, 2 канала
MediaInfo
Общее
Уникальный идентификатор : 221430699894756914680793766061459586409 (0xA6960065CD9EAA56A9219C5ADCEF3D69)
Полное имя : D:\с диска Е\инет\Раздачи\Свободная от мужчин.1992.Перец\Свободная от мужчин.1992.DVB.mkv
Формат : Matroska
Версия формата : Version 2
Размер файла : 1,91 Гбайт
Продолжительность : 1 ч. 11 м.
Общий поток : 3837 Кбит/сек
Название фильма : Свободная от мужчин.1992.DVB
Дата кодирования : UTC 2015-03-06 19:17:41
Программа кодирования : mkvmerge v7.7.0 ('Six Voices') 32bit built on Feb 28 2015 23:23:00
Библиотека кодирования : libebml v1.3.1 + libmatroska v1.4.2
Видео
Идентификатор : 1
Формат : AVC
Формат/Информация : Advanced Video Codec
Профиль формата : High@L3.0
Параметр CABAC формата : Да
Параметр ReFrames формата : 3 кадра
Идентификатор кодека : V_MPEG4/ISO/AVC
Продолжительность : 1 ч. 11 м.
Битрейт : 3504 Кбит/сек
Ширина : 720 пикселей
Высота : 576 пикселей
Соотношение сторон : 4:3
Соотношение сторон в оригинале : 4:3
Режим частоты кадров : Постоянный
Частота кадров : 25,000 кадров/сек
Стандарт вещания : Component
Цветовое пространство : YUV
Субдискретизация насыщенности : 4:2:0
Битовая глубина : 8 бит
Тип развёртки : Чересстрочная
Порядок развёртки : Верхнее поле первое
Бит/(Пиксели*Кадры) : 0.338
Размер потока : 1,75 Гбайт (91%)
Заголовок : Свободная от мужчин.1992.DVB
Язык : Russian
Default : Да
Forced : Нет
Основные цвета : BT.601 PAL
Характеристики трансфера : BT.470 System B, BT.470 System G
Коэффициенты матрицы : BT.601
colour_range : Limited
DURATION : 01:11:18.600000000
NUMBER_OF_FRAMES : 106965
NUMBER_OF_BYTES : 1913984200
_STATISTICS_WRITING_APP : mkvmerge v7.7.0 ('Six Voices') 32bit built on Feb 28 2015 23:23:00
_STATISTICS_WRITING_DATE_UTC : 2015-03-06 19:17:41
_STATISTICS_TAGS : BPS DURATION NUMBER_OF_FRAMES NUMBER_OF_BYTES
Аудио
Идентификатор : 2
Формат : MPEG Audio
Версия формата : Version 1
Профиль формата : Layer 2
Идентификатор кодека : A_MPEG/L2
Идентификатор кодека/Подсказка : MP2
Продолжительность : 1 ч. 11 м.
Вид битрейта : Постоянный
Битрейт : 256 Кбит/сек
Каналы : 2 канала
Частота : 48,0 КГц
Метод сжатия : С потерями
Размер потока : 131 Мбайт (7%)
Язык : Russian
Default : Да
Forced : Нет
DURATION : 01:11:18.600000000
NUMBER_OF_FRAMES : 178275
NUMBER_OF_BYTES : 136915200
_STATISTICS_WRITING_APP : mkvmerge v7.7.0 ('Six Voices') 32bit built on Feb 28 2015 23:23:00
_STATISTICS_WRITING_DATE_UTC : 2015-03-06 19:17:41
_STATISTICS_TAGS : BPS DURATION NUMBER_OF_FRAMES NUMBER_OF_BYTES
Скриншоты
Скачать

Скачать торрент!

Как скачивать? · Что такое торрент? · Рейтинг и ограничения

Сайт не распространяет и не хранит электронные версии произведений, а лишь предоставляет доступ к создаваемому пользователями каталогу ссылок на торрент-файлы, которые содержат только списки хеш-сумм

[Профиль] [ЛС]
Показать сообщения:    
Ответить на тему

Текущее время: Сегодня 04:28

Часовой пояс: GMT + 4



Вы не можете начинать темы
Вы не можете отвечать на сообщения
Вы не можете редактировать свои сообщения
Вы не можете удалять свои сообщения
Вы не можете голосовать в опросах
Вы не можете прикреплять файлы к сообщениям
Вы не можете скачивать файлы