История одного похищения / Собачье дело / Лопухи / Screwed (Скотт Александер / Scott Alexander, Ларри Карацевски / Larry Karaszewski) [2000, США, комедия, криминал, WEB-DL 720p] DVO (Премьер Видео Фильм) + MVO (СТС) + Sub Eng + Original Eng

Ответить на тему
 
Автор Сообщение

user ®

Стаж: 7 лет 7 месяцев

Сообщений: 20008

Пост Пост: #1 от 06-Мар-2015 11:54

[Цитировать]

История одного похищения / Собачье дело / Лопухи / Screwed
Страна: США
Жанр: комедия, криминал
Год выпуска: 2000
Продолжительность: 01:21:53
Перевод 1: Профессиональный (двухголосый закадровый) Премьер Видео Фильм
Перевод 2: Профессиональный (многоголосый закадровый) СТС
Cубтитры: английские
Оригинальная аудиодорожка: английский
Режиссер: Скотт Александер / Scott Alexander, Ларри Карацевски / Larry Karaszewski
В ролях: Норм МакДональд, Дэйв Шаппелл, Элейн Стритч, Дэнни ДеВито, Дэниэл Бензали, Шерман Хемзли, Сара Силверман, Малкольм Стюарт, Локлин Манро, Брент Чэпман...
Описание: Шоферу Вилларду Филлмору крупно не повезло в жизни. Его босс, мисс Крок, адское создание, постоянно придирается к бедному Вилларду. Обуреваемый жаждой справедливой мести, Виллард заручается поддержкой своего лучшего друга Расти и решает похитить любимую собачку мисс Крок.
Требуемый выкуп должен утешить бедного шофера. Но жертве покушения удается сбежать, и у мисс Крок зарождаются нехорошие подозрения.
Друзья обращаются за помощью к безумному агенту похоронного бюро Гроверу Кливеру. Чем больше сообщников, тем больше неприятностей. Цель одна — не проколоться…
Сэмпл: http://multi-up.com/1036626
Тип релиза: WEB-DL 720p
Контейнер: MKV
Видео: 1280x694 (1.85:1), 23.976 fps, AVC, ~3994 Kbps, 0.188 bits/pixel
Аудио 1: Russian, 48.0 KHz, AC3, 2 ch, 192 Kbps - Премьер Видео Фильм
Аудио 2: Russian, 48.0 KHz, AC3, 2 ch, 192 Kbps - СТС
Аудио 3: English, 48.0 KHz, AC3, 6 ch, 448 Kbps

MediaInfo
General
Unique ID : 179974187587400050062411782989484236928 (0x8765C48895F715598EAFC3E6CA39A080)
Complete name : C:\Screwed.mkv
Format : Matroska
Format version : Version 4 / Version 2
File size : 2.82 GiB
Duration : 1h 21mn
Overall bit rate : 4 924 Kbps
Encoded date : UTC 2015-02-16 12:26:51
Writing application : mkvmerge v7.5.0 ('Glass Culture') 64bit built on Jan 4 2015 16:48:44
Writing library : libebml v1.3.1 + libmatroska v1.4.2
DURATION : 01:21:52.928000000
NUMBER_OF_FRAMES : 153529
NUMBER_OF_BYTES : 117910272
_STATISTICS_WRITING_APP : mkvmerge v7.5.0 ('Glass Culture') 64bit built on Jan 4 2015 16:48:44
_STATISTICS_WRITING_DATE_UT : 2015-02-16 12:26:51
_STATISTICS_TAGS : BPS DURATION NUMBER_OF_FRAMES NUMBER_OF_BYTES
Video
ID : 1
Format : AVC
Format/Info : Advanced Video Codec
Format profile : High@L3.1
Format settings, CABAC : No
Format settings, ReFrames : 2 frames
Codec ID : V_MPEG4/ISO/AVC
Duration : 1h 21mn
Bit rate : 3 994 Kbps
Width : 1 280 pixels
Height : 694 pixels
Display aspect ratio : 1.85:1
Frame rate mode : Constant
Frame rate : 23.976 fps
Color space : YUV
Chroma subsampling : 4:2:0
Bit depth : 8 bits
Scan type : Progressive
Bits/(Pixel*Frame) : 0.188
Stream size : 2.28 GiB (81%)
Language : English
Default : Yes
Forced : No
Color primaries : BT.709
Transfer characteristics : BT.709
Matrix coefficients : BT.709
Color range : Limited
Audio #1
ID : 2
Format : AC-3
Format/Info : Audio Coding 3
Mode extension : CM (complete main)
Format settings, Endianness : Big
Codec ID : A_AC3
Duration : 1h 21mn
Bit rate mode : Constant
Bit rate : 192 Kbps
Channel(s) : 2 channels
Channel positions : Front: L R
Sampling rate : 48.0 KHz
Bit depth : 16 bits
Compression mode : Lossy
Stream size : 112 MiB (4%)
Title : Премьер Видео Фильм
Language : Russian
Default : Yes
Forced : No
Audio #2
ID : 3
Format : AC-3
Format/Info : Audio Coding 3
Mode extension : CM (complete main)
Format settings, Endianness : Big
Codec ID : A_AC3
Duration : 1h 21mn
Bit rate mode : Constant
Bit rate : 192 Kbps
Channel(s) : 2 channels
Channel positions : Front: L R
Sampling rate : 48.0 KHz
Bit depth : 16 bits
Compression mode : Lossy
Stream size : 112 MiB (4%)
Title : СТС
Language : Russian
Default : No
Forced : No
Audio #3
ID : 4
Format : AC-3
Format/Info : Audio Coding 3
Mode extension : CM (complete main)
Format settings, Endianness : Big
Codec ID : A_AC3
Duration : 1h 21mn
Bit rate mode : Constant
Bit rate : 448 Kbps
Channel(s) : 6 channels
Channel positions : Front: L C R, Side: L R, LFE
Sampling rate : 48.0 KHz
Bit depth : 16 bits
Compression mode : Lossy
Stream size : 262 MiB (9%)
Language : English
Default : No
Forced : No
Text
ID : 5
Format : UTF-8
Codec ID : S_TEXT/UTF8
Codec ID/Info : UTF-8 Plain Text
Language : English
Default : No
Forced : No
Menu
00:00:00.000 : en:Main Titles
00:02:26.000 : en:Miss Crock
00:05:46.000 : en:Christmas
00:10:21.000 : en:Revenge
00:16:23.000 : en:The Next Morning
00:19:14.000 : en:Kidnapped
00:23:49.000 : en:Public Relations
00:26:22.000 : en:The Detective
00:29:34.000 : en:Grover
00:34:19.000 : en:The Ransom
00:40:22.000 : en:The Victim
00:49:37.000 : en:Screwed
00:54:12.000 : en:Where's Miss Crock
00:58:20.000 : en:Chester's Treachery
01:04:56.000 : en:The Getaway
01:10:49.000 : en:Miss Crock Remembers
01:14:45.000 : en:The Bad Guys
01:17:53.000 : en:End Titles
Скриншоты
Скачать

Скачать торрент!

Как скачивать? · Что такое торрент? · Рейтинг и ограничения

Сайт не распространяет и не хранит электронные версии произведений, а лишь предоставляет доступ к создаваемому пользователями каталогу ссылок на торрент-файлы, которые содержат только списки хеш-сумм

[Профиль] [ЛС]
Показать сообщения:    
Ответить на тему

Текущее время: Сегодня 17:45

Часовой пояс: GMT + 4



Вы не можете начинать темы
Вы не можете отвечать на сообщения
Вы не можете редактировать свои сообщения
Вы не можете удалять свои сообщения
Вы не можете голосовать в опросах
Вы не можете прикреплять файлы к сообщениям
Вы не можете скачивать файлы