Кровавый Бой / Кровавая Битва / Bloodfight (Сюдзи Гото / Shugi Goto) [1989, Гонконг, боевик, DVDRip] AVO (Визгунов)

Ответить на тему
 
Автор Сообщение

user ®

Стаж: 13 лет

Сообщений: 15071

Пост Пост: #1 от 06-Мар-2015 02:24

[Цитировать]

Кровавый Бой / Кровавая Битва / Bloodfight
Год выпуска: 1989
Страна: Гонконг
Жанр: боевик
Продолжительность: 01:36:27
Перевод: Авторский (одноголосый закадровый) - Сергей Визгунов
Cубтитры: нет
Режиссер: Сюдзи Гото / Shugi Goto
В ролях: Ясуаки Курата (Masahiro Kai), Саймон Ям (Ryu Tenmei), Мэг Лам (Suzie Wong), Кристина Лосон (Milly McKenzie), Боло Йенг (Chang Lee - The Vietnamese Cobra), Джон Ладальски (John O'Brien), Стюарт Смит (Gang Leader), Ричард Фу (Shop Owner), Раджа Лион (Fighter #2), Кен Бойл (Hank Chow)-Мировая премьера: 24 июня 1989-Описание: Бывший победитель Гонконгского чемпионата мира по боевым искусствам, переживая потерю титула чемпиона, берет на обучение талантливого молодого бойца, которого на очередном турнире настигает несчастье: его убивает мерзкий, но сильный и крутой Ли, представитель вьетнамской школы борьбы. Спившись вначале от горя, тренер тем не менее находит в себе силы отомстить, поскольку, протрезвев, он стал усиленно готовиться к ответному поединку…-Доп. информация:
За [url=http://***/forum/viewtopic.php?t=4798117]исходник видео[/url] большое спасибо [url=http://***/forum/profile.php?mode=viewprofile&u=7573484]hexagen[/url].
За оцифровку Визгунова с видеокассеты большое спасибо [url=http://***/forum/profile.php?mode=viewprofile&u=6307980]ripak22mee[/url].
Синхронизация перевода - [url=http://***/forum/profile.php?mode=viewprofile&u=20398762]JUSTKANT[/url].-Данный перевод на трекере появляется впервые.-[url=http://static.***] [/url]
Рейтинг

MPAA: R - Лицам до 17 лет обязательно присутствие взрослого.-Качество видео: DVDRip
Формат видео: AVI -> //SAMPLE//
Видео: XviD, 624x464 (4:3), 23.976 fps, 1952 kbps avg
Аудио:
1 - 48 khz, AC3 Dolby Digital, 2/0 (L,R) ch, ~192 kbps [Визгунов] VHSRip

MediaInfo
General
Complete name : D:\Релизы на Трекере\Кровавый Бой (Визгунов).avi
Format : AVI
Format/Info : Audio Video Interleave
File size : 1.45 GiB
Duration : 1h 36mn
Overall bit rate : 2 154 Kbps
Writing application : VirtualDubMod 1.5.10.2 (build 2540/release)
Writing library : VirtualDubMod build 2540/release
Video
ID : 0
Format : MPEG-4 Visual
Format profile : Simple@L3
Format settings, BVOP : No
Format settings, QPel : No
Format settings, GMC : No warppoints
Format settings, Matrix : Default (H.263)
Codec ID : XVID
Codec ID/Hint : XviD
Duration : 1h 36mn
Bit rate : 1 952 Kbps
Width : 624 pixels
Height : 464 pixels
Display aspect ratio : 4:3
Frame rate : 23.976 fps
Color space : YUV
Chroma subsampling : 4:2:0
Bit depth : 8 bits
Scan type : Progressive
Compression mode : Lossy
Bits/(Pixel*Frame) : 0.281
Stream size : 1.32 GiB (91%)
Writing library : XviD 1.2.1 (UTC 2008-12-04)
Audio
ID : 1
Format : AC-3
Format/Info : Audio Coding 3
Mode extension : CM (complete main)
Format settings, Endianness : Big
Codec ID : 2000
Duration : 1h 36mn
Bit rate mode : Constant
Bit rate : 192 Kbps
Channel(s) : 2 channels
Channel positions : Front: L R
Sampling rate : 48.0 KHz
Bit depth : 16 bits
Compression mode : Lossy
Stream size : 132 MiB (9%)
Alignment : Split accross interleaves
Interleave, duration : 42 ms (1.00 video frame)
Interleave, preload duratio : 500 ms
Скриншот c названием фильма Скриншоты
Скачать

Скачать торрент! Кровавый Бой / Кровавая Битва / Bloodfight (Сюдзи Гото / Shugi Goto) [1989, Гонконг, боевик, DVDRip] AVO (Визгунов)

Как скачивать? · Что такое торрент? · Рейтинг и ограничения

Сайт не распространяет и не хранит электронные версии произведений, а лишь предоставляет доступ к создаваемому пользователями каталогу ссылок на торрент-файлы, которые содержат только списки хеш-сумм

[Профиль] [ЛС]
Показать сообщения:    
Ответить на тему

Текущее время: Сегодня 18:18

Часовой пояс: GMT + 4



Вы не можете начинать темы
Вы не можете отвечать на сообщения
Вы не можете редактировать свои сообщения
Вы не можете удалять свои сообщения
Вы не можете голосовать в опросах
Вы не можете прикреплять файлы к сообщениям
Вы не можете скачивать файлы