Триптих (Али Хамраев) [1977, Драма, TVRip]

Ответить на тему
 
Автор Сообщение

user ®

Стаж: 7 лет 11 месяцев

Сообщений: 20008

Пост Пост: #1 от 06-Мар-2015 02:24

[Цитировать]

Триптих
Жанр: Драма
Год выпуска: 1977
Продолжительность: 01:11:40
Режиссёр: Али Хамраев

В ролях: Дилором Камбарова, Гульча Ташбаева, Шавкат Абдусаламов, Хикмат Латыпов, Байтен Омаров, Зухра Абдурахманова, Саидмурад Зияутдинов, Марат Рахматов, Абдугани Саидов, Анвара Алимова, З. Агишева
Описание: Фильм-воспоминание старого учителя о жизни узбекского села в первые послевоенные годы, о тех изменениях, которые произошли в быту и в положении женщин. Героини фильма - организатор и руководитель швейного комбината Халима и сотрудница райисполкома Санобар.
Доп. информация: Релиз: , pmv
Сценарист: Роза Хуснутдинова
Оператор: Юрий Клименко
Композитор: Румиль Вильданов
Художник: Шавкат Абдусаламов
Производство: Узбекфильм
Премьера: июнь 1980 (Москва)

В раздаче имеются неотключаемые английские субтитры.
Гран-при на международном кинофестивале авторских фильмов в Сан-Ремо в 1980 году.

Сэмпл: https://yadi.sk/i/eFbC-UQaf4s4K
Качество видео: TVRip
Формат видео: AVI
Видео: 704x328 (2.15:1), 23.976 fps, XviD build 73 ~1249 kbps avg, 0.23 bit/pixel
Аудио: 44.100 kHz, MPEG Layer 3, 2 ch, ~128.00 kbps avg
MediaInfo
Format : AVI
Format/Info : Audio Video Interleave
File size : 711 MiB
Duration : 1h 11mn
Overall bit rate : 1 387 Kbps
Writing library : VirtualDub build 35576/release
Video
ID : 0
Format : MPEG-4 Visual
Format profile : Advanced Simple@L5
Format settings, BVOP : Yes
Format settings, QPel : No
Format settings, GMC : No warppoints
Format settings, Matrix : Default (H.263)
Codec ID : XVID
Codec ID/Hint : XviD
Duration : 1h 11mn
Bit rate : 1 250 Kbps
Width : 704 pixels
Height : 328 pixels
Display aspect ratio : 2.2:1
Frame rate : 23.976 fps
Color space : YUV
Chroma subsampling : 4:2:0
Bit depth : 8 bits
Scan type : Progressive
Bits/(Pixel*Frame) : 0.226
Stream size : 641 MiB (90%)
Writing library : XviD 73
Audio
ID : 1
Format : MPEG Audio
Format version : Version 1
Format profile : Layer 3
Mode : Joint stereo
Codec ID : 55
Codec ID/Hint : MP3
Duration : 1h 11mn
Bit rate mode : Constant
Bit rate : 128 Kbps
Channel(s) : 2 channels
Sampling rate : 44.1 KHz
Stream size : 65.6 MiB (9%)
Alignment : Split accross interleaves
Interleave, duration : 42 ms (1.00 video frame)
Interleave, preload duration : 500 ms
Скриншот c названием фильма Скриншоты
Скачать

Скачать торрент!

Как скачивать? · Что такое торрент? · Рейтинг и ограничения

Сайт не распространяет и не хранит электронные версии произведений, а лишь предоставляет доступ к создаваемому пользователями каталогу ссылок на торрент-файлы, которые содержат только списки хеш-сумм

[Профиль] [ЛС]
Показать сообщения:    
Ответить на тему

Текущее время: Сегодня 09:27

Часовой пояс: GMT + 4



Вы не можете начинать темы
Вы не можете отвечать на сообщения
Вы не можете редактировать свои сообщения
Вы не можете удалять свои сообщения
Вы не можете голосовать в опросах
Вы не можете прикреплять файлы к сообщениям
Вы не можете скачивать файлы