С любовью, Рози / Love, Rosie (Кристиан Диттер / Christian Ditter) [2014, Германия, Великобритания, комедия, BDRip 720p] VO (А. Матвеев) + Sub Rus, Eng + Original Eng

Ответить на тему
 
Автор Сообщение

user ®

Стаж: 7 лет 7 месяцев

Сообщений: 20008

Пост Пост: #1 от 05-Мар-2015 20:03

[Цитировать]

С любовью, Рози / Love, Rosie
Страна: Германия, Великобритания
Студия: Canyon Creek Films
Жанр: комедия
Год выпуска: 2014
Продолжительность: 01:42:57
Перевод: Одноголосый закадровый Алексей Матвеев
Cубтитры: Rus, Eng
Оригинальная аудиодорожка: английский
Режиссер: Кристиан Диттер / Christian Ditter
В ролях: Сэм Клафлин, Лили Коллинз, Сьюки Уотерхаус, Тэмзин Эджертон, Арт Паркинсон, Кристиан Кук, Джэми Уинстон, Лили Лэйт, Ник Ли, Джейк Мэнли
Описание: Рози и Алекс были лучшими друзьями с детства, и теперь, по окончании школы, собираются вместе продолжить учебу в университете.
Однако в их судьбах происходит резкий поворот, когда после ночи со звездой школы Рози узнает, что у нее будет ребенок. Невзирая на то, что обстоятельства и жизненные ситуации разлучают героев, они и спустя годы продолжают помнить друг о друге и о том чувстве, что соединило их в юности…
Экранизация романа Сесилии Ахерн "Там, где заканчивается радуга".

Тип релиза: BDRip 720p
Контейнер: MKV
Видео: MPEG-4 AVC, 6889 Кбит/с, 1280x544, 23,976 fps
Аудио: Rus, AC3, 384 kb/s (6 ch), 48 kHz
Аудио 2: Eng, DTS, 1510 kb/s (6 ch), 48 kHz
Формат субтитров: softsub (SRT)
MediaInfo
Format : Matroska
Format version : Version 4 / Version 2
File size : 6.45 GiB
Duration : 1h 43mn
Overall bit rate : 8 960 Kbps
Movie name : С любовью, Рози. (Tonik)
Encoded date : UTC 2015-03-04 04:33:24
Writing application : mkvmerge v7.1.0 ('Good Love') 64bit built on Jul 27 2014 13:06:55
Writing library : libebml v1.3.0 + libmatroska v1.4.1
_STATISTICS_WRITING_APP : mkvmerge v7.1.0 ('Good Love') 64bit built on Jul 27 2014 13:06:55
_STATISTICS_WRITING_DATE_UTC : 2015-03-04 04:33:24
_STATISTICS_TAGS : BPS DURATION NUMBER_OF_FRAMES NUMBER_OF_BYTES
DURATION : 01:43:03.392000000
NUMBER_OF_FRAMES : 193231
NUMBER_OF_BYTES : 296802816
Video
ID : 1
Format : AVC
Format/Info : Advanced Video Codec
Format profile : High@L4.1
Format settings, CABAC : Yes
Format settings, ReFrames : 12 frames
Codec ID : V_MPEG4/ISO/AVC
Duration : 1h 43mn
Bit rate : 6 889 Kbps
Width : 1 280 pixels
Height : 544 pixels
Display aspect ratio : 2.35:1
Frame rate mode : Constant
Frame rate : 23.976 fps
Color space : YUV
Chroma subsampling : 4:2:0
Bit depth : 8 bits
Scan type : Progressive
Bits/(Pixel*Frame) : 0.413
Stream size : 4.96 GiB (77%)
Title : Tonik
Writing library : x264 core 146 r2538 121396c
Encoding settings : cabac=1 / ref=12 / deblock=1:-3:-3 / analyse=0x3:0x133 / me=umh / subme=11 / psy=1 / psy_rd=1.00:0.00 / mixed_ref=1 / me_range=32 / chroma_me=1 / trellis=2 / 8x8dct=1 / cqm=0 / deadzone=21,11 / fast_pskip=0 / chroma_qp_offset=-2 / threads=12 / lookahead_threads=3 / sliced_threads=0 / nr=0 / decimate=1 / interlaced=0 / bluray_compat=0 / constrained_intra=0 / bframes=11 / b_pyramid=2 / b_adapt=2 / b_bias=0 / direct=1 / weightb=1 / open_gop=0 / weightp=2 / keyint=250 / keyint_min=23 / scenecut=40 / intra_refresh=0 / rc=crf / mbtree=0 / crf=17.8 / qcomp=0.60 / qpmin=0 / qpmax=69 / qpstep=4 / ip_ratio=1.40 / pb_ratio=1.30 / aq=1:1.00
Language : English
Default : Yes
Forced : No
_STATISTICS_WRITING_APP : mkvmerge v7.1.0 ('Good Love') 64bit built on Jul 27 2014 13:06:55
_STATISTICS_WRITING_DATE_UTC : 2015-03-04 04:33:24
_STATISTICS_TAGS : BPS DURATION NUMBER_OF_FRAMES NUMBER_OF_BYTES
DURATION : 01:42:57.219000000
NUMBER_OF_FRAMES : 148105
NUMBER_OF_BYTES : 5461330733
Audio #1
ID : 2
Format : AC-3
Format/Info : Audio Coding 3
Mode extension : CM (complete main)
Format settings, Endianness : Big
Codec ID : A_AC3
Duration : 1h 43mn
Bit rate mode : Constant
Bit rate : 384 Kbps
Channel(s) : 6 channels
Channel positions : Front: L C R, Side: L R, LFE
Sampling rate : 48.0 KHz
Bit depth : 16 bits
Compression mode : Lossy
Stream size : 283 MiB (4%)
Title : A.Матвеев
Language : Russian
Default : Yes
Forced : No
Audio #2
ID : 3
Format : DTS
Format/Info : Digital Theater Systems
Mode : 16
Format settings, Endianness : Big
Codec ID : A_DTS
Duration : 1h 43mn
Bit rate mode : Constant
Bit rate : 1 509 Kbps
Channel(s) : 6 channels
Channel positions : Front: L C R, Side: L R, LFE
Sampling rate : 48.0 KHz
Bit depth : 16 bits
Compression mode : Lossy
Stream size : 1.09 GiB (17%)
Language : English
Default : No
Forced : No
Text #1
ID : 4
Format : UTF-8
Codec ID : S_TEXT/UTF8
Codec ID/Info : UTF-8 Plain Text
Language : Russian
Default : No
Forced : No
Text #2
ID : 5
Format : UTF-8
Codec ID : S_TEXT/UTF8
Codec ID/Info : UTF-8 Plain Text
Language : English
Default : No
Forced : No
Menu
00:00:00.000 : en:1
00:08:13.000 : en:2
00:15:40.000 : en:3
00:23:43.000 : en:4
00:33:15.000 : en:5
00:41:09.000 : en:6
00:48:34.000 : en:7
00:55:48.000 : en:8
01:04:03.000 : en:9
01:12:24.000 : en:10
01:20:13.000 : en:11
01:30:15.000 : en:12
01:38:14.000 : en:13
Скриншоты
Скачать

Скачать торрент!

Как скачивать? · Что такое торрент? · Рейтинг и ограничения

Сайт не распространяет и не хранит электронные версии произведений, а лишь предоставляет доступ к создаваемому пользователями каталогу ссылок на торрент-файлы, которые содержат только списки хеш-сумм

[Профиль] [ЛС]
Показать сообщения:    
Ответить на тему

Текущее время: Сегодня 22:17

Часовой пояс: GMT + 4



Вы не можете начинать темы
Вы не можете отвечать на сообщения
Вы не можете редактировать свои сообщения
Вы не можете удалять свои сообщения
Вы не можете голосовать в опросах
Вы не можете прикреплять файлы к сообщениям
Вы не можете скачивать файлы