Хранитель легенды / The Easter Story Keepers (Джимми Т. Мураками Jimmy T. Murakami) [1998, Анимация, VHSRip] AVO Кашкин

Ответить на тему
 
Автор Сообщение

user ®

Стаж: 13 лет

Сообщений: 15041

Пост Пост: #1 от 05-Мар-2015 10:48

[Цитировать]

Хранитель легенды / The Easter Story Keepers
Страна: США
Жанр: Анимация
Продолжительность: 01:09:33
Год выпуска: 1998
Перевод: Авторский (одноголосый закадровый) Кашкин
Русские субтитры: нет
Режиссёр: Джимми Т. Мураками Jimmy T. Murakami
Описание: Аннотация от alenavova:
Трудные времена настали для Бена-пекаря, предводителя группы храбрых христиан, для его жены Елены и их приемных детей, когда их город захватил римский император Нерон. После чудесного побега они нашли спасение в катакомбах, где рассказы Бена о последних днях Христа и его воскрешении давали им силу и надежду. Этот мультфильм Вашим детям о вере, о семейных ценностях и важности праздника Пасхи.
Доп. информация: Оцифровка VHS (личный архив) и получение VHSRip alenavova
Эксклюзив для ***. При размещении данного релиза на других сайтах ссылка на автора alenavova обязательна.

Релиз
Качество: VHSRip
Формат: AVI
Видео: 640x480 (1.33:1), 25 fps, XviD build 50 ~1307 kbps avg, 0.17 bit/pixel
Аудио: 48 kHz, AC3 Dolby Digital, 2/0 (L,R) ch, ~192 kbps
Субтитры: отсутствуют
Подробные технические данные
Хранители легенды - The Easter Story Keepers [by alenavova].aviFormat : AVIFormat/Info : Audio Video InterleaveFile size : 751 MiBDuration : 1h 9mnOverall bit rate : 1 509 KbpsMovie name : Хранители легенды (Кашкин)Director : by alenavovaWriting application : VirtualDubMod 1.5.10.3 | www.virtualdub-fr.org || (build 2550/release)Copyright : Edich2Comment : ***
VideoID : 0Format : MPEG-4 VisualFormat profile : Advanced Simple@L5Format settings, BVOP : 1Format settings, QPel : NoFormat settings, GMC : No warppointsFormat settings, Matrix : Default (MPEG)Codec ID : XVIDCodec ID/Hint : XviDDuration : 1h 9mnBit rate : 1 307 KbpsWidth : 640 pixelsHeight : 480 pixelsDisplay aspect ratio : 4:3Frame rate : 25.000 fpsColor space : YUVChroma subsampling : 4:2:0Bit depth : 8 bitsScan type : ProgressiveCompression mode : LossyBits/(Pixel*Frame) : 0.170Stream size : 650 MiB (87%)Writing library : XviD 1.2.1 (UTC 2008-12-04)
AudioID : 1Format : AC-3Format/Info : Audio Coding 3Mode extension : CM (complete main)Format settings, Endianness : BigCodec ID : 2000Duration : 1h 9mnBit rate mode : ConstantBit rate : 192 KbpsChannel(s) : 2 channelsChannel positions : Front: L RSampling rate : 48.0 KHzBit depth : 16 bitsCompression mode : LossyStream size : 95.5 MiB (13%)Alignment : Split accross interleavesInterleave, duration : 40 ms (1.00 video frame)Interleave, preload duration : 500 ms
Скриншоты
Скачать

Скачать торрент! Хранитель легенды / The Easter Story Keepers (Джимми Т. Мураками Jimmy T. Murakami) [1998, Анимация, VHSRip] AVO Кашкин

Как скачивать? · Что такое торрент? · Рейтинг и ограничения

Сайт не распространяет и не хранит электронные версии произведений, а лишь предоставляет доступ к создаваемому пользователями каталогу ссылок на торрент-файлы, которые содержат только списки хеш-сумм

[Профиль] [ЛС]
Показать сообщения:    
Ответить на тему

Текущее время: Сегодня 00:41

Часовой пояс: GMT + 4



Вы не можете начинать темы
Вы не можете отвечать на сообщения
Вы не можете редактировать свои сообщения
Вы не можете удалять свои сообщения
Вы не можете голосовать в опросах
Вы не можете прикреплять файлы к сообщениям
Вы не можете скачивать файлы