Духless (Роман Прыгунов) [2012, Драма, HDRip]

Ответить на тему
 
Автор Сообщение

user ®

Стаж: 7 лет 7 месяцев

Сообщений: 20008

Пост Пост: #1 от 05-Мар-2015 07:36

[Цитировать]

Духless
Жанр: Драма
Год выпуска: 2012
Продолжительность: 01:45:24.671 (151792 frames)
Режиссёр: Роман Прыгунов
В ролях: Данила Козловский (Максим), Мария Андреева (Юля), Артем Михалков (Вадим), Никита Панфилов (Миша Вуду), Артур Смольянинов (Авдей), Михаил Ефремов (Кондратов), Мария Кожевникова (Эльвира), Сергей Белоголовцев (Гулякин), Саша Бурдо (Гарридо), Дмитрий Дорохов (Саша)
Описание: Главный герой фильма — 29-летний топ-менеджер крупного международного банка по имени Макс. Он уверен, что жизнь удалась, ведь у него есть то, о чём многие не могут даже и мечтать: дорогая машина, пентхаус и вечеринки. Свою жизнь Максим тратит на зарабатывание денег, а деньги — на ночные клубы, шикарных девушек, кокаин и прочие атрибуты гламурной жизни. Но в какой-то момент к герою приходит осознание того, что с его жизнью что-то не так. И его мир рушится подобно карточному домику.
Сэмпл
Качество видео: HDRip
Формат видео: AVI
Видео: 640x272 (2.35:1), 24.000 fps, XviD build 50 ~848 kbps avg, 0.20 bit/pixel
Аудио: 48 kHz, MPEG Layer 3, 2 ch, ~128.00 kbps avg

MI
Format : AVI
Format/Info : Audio Video Interleave
File size : 743 MiB
Duration : 1h 45mn
Overall bit rate : 986 Kbps
Writing application : VirtualDubMod 1.5.10.2 (build 2540/release)
Writing library : VirtualDubMod build 2540/release
Video
ID : 0
Format : MPEG-4 Visual
Format profile : Advanced Simple@L5
Format settings, BVOP : Yes
Format settings, QPel : No
Format settings, GMC : No warppoints
Format settings, Matrix : Custom
Codec ID : XVID
Codec ID/Hint : XviD
Duration : 1h 45mn
Bit rate : 849 Kbps
Width : 640 pixels
Height : 272 pixels
Display aspect ratio : 2.35:1
Frame rate : 24.000 fps
Resolution : 8 bits
Colorimetry : 4:2:0
Scan type : Progressive
Bits/(Pixel*Frame) : 0.203
Stream size : 640 MiB (86%)
Writing library : XviD 1.2.1 (UTC 2008-12-04)
Audio
ID : 1
Format : MPEG Audio
Format version : Version 1
Format profile : Layer 3
Codec ID : 55
Codec ID/Hint : MP3
Duration : 1h 45mn
Bit rate mode : Constant
Bit rate : 128 Kbps
Channel(s) : 2 channels
Sampling rate : 48.0 KHz
Stream size : 96.5 MiB (13%)
Alignment : Aligned on interleaves
Interleave, duration : 42 ms (1.00 video frame)
Interleave, preload duration : 504 ms
Writing library : LAME3.97
Encoding settings : -m s -V 4 -q 2 -lowpass 17 -b 128
Картинки
Скачать

Скачать торрент!

Как скачивать? · Что такое торрент? · Рейтинг и ограничения

Сайт не распространяет и не хранит электронные версии произведений, а лишь предоставляет доступ к создаваемому пользователями каталогу ссылок на торрент-файлы, которые содержат только списки хеш-сумм

[Профиль] [ЛС]
Показать сообщения:    
Ответить на тему

Текущее время: Сегодня 10:06

Часовой пояс: GMT + 4



Вы не можете начинать темы
Вы не можете отвечать на сообщения
Вы не можете редактировать свои сообщения
Вы не можете удалять свои сообщения
Вы не можете голосовать в опросах
Вы не можете прикреплять файлы к сообщениям
Вы не можете скачивать файлы