Опасная комбинация (Арменак Назикян) [2008, Россия, боевик, HDTV 1080i]

Ответить на тему
 
Автор Сообщение

user ®

Стаж: 7 лет 7 месяцев

Сообщений: 20008

Пост Пост: #1 от 04-Мар-2015 18:51

[Цитировать]

Опасная комбинация
Страна: Россия
Студия: OOO "Интра Фильм"
Жанр: боевик
Год выпуска: 2008
Продолжительность: 01:33:13
Перевод: не требуется
Субтитры: нет
Режиссёр: Арменак Назикян
В ролях: Вячеслав Разбегаев, Екатерина Решетникова, Артур Ваха, Евгений Баранов, Андрей Федорцов, Наталья Ткаченко (Бартева), Иван Краско, Сергей Чудаков, Олег Алмазов, Юрий Лазарев, Юлия Руди и другие
Описание: Захватывающая детективная история с погонями, перестрелками, оборотнями в пагонах. Влиятельный бизнесмен Эдуард Иванович обращается к полковнику милиции Егорову, посодействовать ему за крупное вознаграждение в незаконном вывозе радиоактивных отходов из Англии и захоронении их на территории России. Егоров поручает эту операцию уволенному из органов милиции Сергею Самсонову. После трагической гибели любимой женщины Людмилы, в смерти, которой он себя считает виновным, Самсонов соглашается. Друг Самсонова - журналист Кириллов обладает информацией об этой операции и начинает собственное расследование, которое стоит ему жизни. Потрясенный смертью близкого друга, Самсонов хочет самостоятельно разобраться в этом деле...
Сэмпл: http://multi-up.com/1035990
Качество видео: HDTV 1080i
Формат видео: MKV
Видео: AVC, 1920x1080, (16:9), 25 fps, 7. 329 Kbps, 0.141 bit/pixel
Аудио: русский, MP2, 48 kHz, 2ch, 320 kbps
MediaInfo
General
Unique ID : 219564893886316504372131721660117236730 (0xA52EA90F2277CEA8B1DBE9BB5CD33BFA)
Complete name : D:\Опасная комбинация_2008_HDTV 1080i_RU.mkv
Format : Matroska
Format version : Version 4 / Version 2
File size : 5.08 GiB
Duration : 1h 33mn
Overall bit rate : 7 804 Kbps
Encoded date : UTC 2015-03-02 12:32:43
Writing application : mkvmerge v7.7.0 ('Six Voices') 64bit built on Feb 28 2015 23:39:33
Writing library : libebml v1.3.1 + libmatroska v1.4.2
DURATION : 01:33:13.032000000
NUMBER_OF_FRAMES : 233043
NUMBER_OF_BYTES : 223721280
_STATISTICS_WRITING_APP : mkvmerge v7.7.0 ('Six Voices') 64bit built on Feb 28 2015 23:39:33
_STATISTICS_WRITING_DATE_UTC : 2015-03-02 12:32:43
_STATISTICS_TAGS : BPS DURATION NUMBER_OF_FRAMES NUMBER_OF_BYTES
Video
ID : 1
Format : AVC
Format/Info : Advanced Video Codec
Format profile : High@L4.0
Format settings, CABAC : Yes
Format settings, ReFrames : 3 frames
Format settings, GOP : M=2, N=30
Codec ID : V_MPEG4/ISO/AVC
Duration : 1h 33mn
Bit rate : 7 329 Kbps
Width : 1 920 pixels
Height : 1 080 pixels
Display aspect ratio : 16:9
Frame rate mode : Constant
Frame rate : 25.000 fps
Standard : Component
Color space : YUV
Chroma subsampling : 4:2:0
Bit depth : 8 bits
Scan type : MBAFF
Scan order : Bottom Field First
Bits/(Pixel*Frame) : 0.141
Stream size : 4.77 GiB (94%)
Default : Yes
Forced : No
Color primaries : BT.709
Transfer characteristics : BT.709
Matrix coefficients : BT.709
Color range : Limited
Audio
ID : 2
Format : MPEG Audio
Format version : Version 1
Format profile : Layer 2
Codec ID : A_MPEG/L2
Codec ID/Hint : MP2
Duration : 1h 33mn
Bit rate mode : Constant
Bit rate : 320 Kbps
Channel(s) : 2 channels
Sampling rate : 48.0 KHz
Compression mode : Lossy
Stream size : 213 MiB (4%)
Language : English
Default : Yes
Forced : No
Скриншот c названием фильма Скриншоты
Скачать

Скачать торрент!

Как скачивать? · Что такое торрент? · Рейтинг и ограничения

Сайт не распространяет и не хранит электронные версии произведений, а лишь предоставляет доступ к создаваемому пользователями каталогу ссылок на торрент-файлы, которые содержат только списки хеш-сумм

[Профиль] [ЛС]
Показать сообщения:    
Ответить на тему

Текущее время: Сегодня 20:34

Часовой пояс: GMT + 4



Вы не можете начинать темы
Вы не можете отвечать на сообщения
Вы не можете редактировать свои сообщения
Вы не можете удалять свои сообщения
Вы не можете голосовать в опросах
Вы не можете прикреплять файлы к сообщениям
Вы не можете скачивать файлы