Разрешите тебя поцеловать... отец невесты (Пётр Амелин) [2014, Комедия, WEB-DLRip]

Ответить на тему
 
Автор Сообщение

user ®

Стаж: 7 лет 7 месяцев

Сообщений: 20008

Пост Пост: #1 от 04-Мар-2015 03:12

[Цитировать]

Разрешите тебя поцеловать... отец невесты
Жанр: Комедия, мелодрама
Год выпуска: 2014
Продолжительность: 01:30:50
Режиссёр: Пётр Амелин
В ролях: Игорь Лифанов, Мария Куликова, Борис Щербаков, Михаил Трясоруков, Алина Гуменюк, Кирилл Балобан, Виталик Олечкин, Наталья Зингер, Андрей Полищук, Марина Доможирова, Майя Айрин Вада, Александр Удальцов, Наталья Иохвидова, Сергей Васильев
Описание: С тех пор, как военные Наталья Киселева и Григорий Власов поженились, прошло три года. Теперь в их молодой семье растет трехлетний сын Родион. Идиллию нарушает вернувшаяся из Лондона 17-летняя Маша, дочка Григория от первого брака. Событие это, конечно, радостное, вот только Маша привезла с собой жениха Гарри. Девушка сообщает опешившему Власову, что собирается выйти замуж и уехать жить в Англию. Тогда Григорий решает испытать будущего зятя. Он определяет парня в армию, где Гарри проходит курс молодого бойца.

Качество видео: WEB-DLRip [Исходник: WEB-DL (1080p) от megapeer]
Формат видео: AVI
Видео: XviD, 656x368 (16:9), 1009 Кбит/с, 25 кадр/с
Аудио: Русский, MP3, 48000 Гц, 128 Кбит/с, 2 канала (Стерео)

Автор рипа - ivandubskoj
MediaInfo
General
Complete name : Razreshite.tebya.poselovat'.otec.nevesti.2014.WEB-DLRip.745MB.avi
Format : AVI
Format/Info : Audio Video Interleave
File size : 745 MiB
Duration : 1h 30mn
Overall bit rate : 1 146 Kbps
Writing application : VirtualDubMod 1.5.10.3 (build 2550/release)
Writing library : VirtualDubMod build 2550/release
Copyright : rip by ivandubskoj
Video
ID : 0
Format : MPEG-4 Visual
Format profile : Advanced Simple@L5
Format settings, BVOP : 2
Format settings, QPel : No
Format settings, GMC : No warppoints
Format settings, Matrix : Custom
Codec ID : XVID
Codec ID/Hint : XviD
Duration : 1h 30mn
Bit rate : 1 009 Kbps
Width : 656 pixels
Height : 368 pixels
Display aspect ratio : 16:9
Frame rate : 25.000 fps
Color space : YUV
Chroma subsampling : 4:2:0
Bit depth : 8 bits
Scan type : Progressive
Compression mode : Lossy
Bits/(Pixel*Frame) : 0.167
Stream size : 655 MiB (88%)
Writing library : XviD 73
Audio
ID : 1
Format : MPEG Audio
Format version : Version 1
Format profile : Layer 3
Codec ID : 55
Codec ID/Hint : MP3
Duration : 1h 30mn
Bit rate mode : Constant
Bit rate : 128 Kbps
Channel(s) : 2 channels
Sampling rate : 44.1 KHz
Compression mode : Lossy
Stream size : 83.2 MiB (11%)
Alignment : Split accross interleaves
Interleave, duration : 40 ms (1.00 video frame)
Interleave, preload duration : 500 ms
Writing library : LAME3.99r
Encoding settings : -m s -V 4 -q 0 -lowpass 17 -b 128
Скриншот c названием фильма Скриншоты
Скачать

Скачать торрент!

Как скачивать? · Что такое торрент? · Рейтинг и ограничения

Сайт не распространяет и не хранит электронные версии произведений, а лишь предоставляет доступ к создаваемому пользователями каталогу ссылок на торрент-файлы, которые содержат только списки хеш-сумм

[Профиль] [ЛС]
Показать сообщения:    
Ответить на тему

Текущее время: Сегодня 12:29

Часовой пояс: GMT + 4



Вы не можете начинать темы
Вы не можете отвечать на сообщения
Вы не можете редактировать свои сообщения
Вы не можете удалять свои сообщения
Вы не можете голосовать в опросах
Вы не можете прикреплять файлы к сообщениям
Вы не можете скачивать файлы