Кэндимэн 2: Прощание с плотью / Candyman: Farewell to the Flesh (Билл Кондон / Bill Condon) [1995, США, ужасы, BDRip 720p] MVO + DVO + 3x AVO + Sub Eng + Original Eng

Ответить на тему
 
Автор Сообщение

user ®

Стаж: 7 лет 7 месяцев

Сообщений: 20008

Пост Пост: #1 от 03-Мар-2015 20:57

[Цитировать]

Кэндимэн 2: Прощание с плотью / Candyman: Farewell to the Flesh
Страна: США
Студия: PolyGram Filmed Entertainment / Propaganda Films
Жанр: ужасы
Год выпуска: 1995
Продолжительность: 01:35:06
Перевод: Профессиональный (многоголосый закадровый)
Перевод 2: Профессиональный (двухголосый закадровый) НТВ+
Перевод 3: Авторский (одноголосый закадровый) А. Гаврилов
Перевод 4: Авторский (одноголосый закадровый) С. Визгунов
Перевод 5: Авторский (одноголосый закадровый) А. Кашкин
Cубтитры: английские
Оригинальная аудиодорожка: английский
Режиссер: Билл Кондон / Bill Condon
В ролях: Тони Тодд, Келли Роуэн, Уильям О’Лири, Билл Нанн, Мэтт Кларк, Дэвид Джианопулос, Фэй Хаузер, Джошуа Гибран Мэйвизер, Тимоти Кархарт, Вероника Картрайт
Описание: Новый Орлеан. Произнеси пять раз его имя, и он появится. Железный крюк вместо руки да пчелы, летающие вокруг него. Когда — то, сразу после окончания гражданской войны в США, чернокожий раб Дэниел Робитайл пострадал за свою любовь к белой девушке Кэролайн. Отец возлюбленной вместе с другими богатыми землевладельцами отрезали кисть руки раба, обмазали тело медом и оставили того умирать в чистом поле под палящим солнцем и роящими над ним злыми пчелами. Смерть была медленной и мучительной. Именно отсюда пошло его прозвище — Кэндимен. В наше время девушка Энни, прямой потомок Кэролайн, неосторожно произносит магическое заклинание, и Кэндимен появляется. Вместе с ним появляются и многочисленные трупы…
Кинопоиск|IMDB|Сэмпл
Тип релиза: BDRip 720p
Контейнер: MKV
Видео: MPEG4 Video (H264) 1280x694 (83:45) 23.976fps 9394 kbps
Аудио: Русский AC-3 / 2 ch / 48.0 KHz / 192 Kbps
Аудио 2: Русский AC-3 / 2 ch / 48.0 KHz / 192 Kbps / НТВ+
Аудио 3: Русский AC-3 / 2 ch / 48.0 KHz / 192 Kbps / А. Гаврилов
Аудио 4: Русский AC-3 / 2 ch / 48.0 KHz / 192 Kbps / С. Визгунов
Аудио 5: Русский AC-3 / 2 ch / 48.0 KHz / 192 Kbps / А. Кашкин
Аудио 6: Английский AC-3 / 6 ch / 48.0 KHz / 640 Kbps / Original
Аудио 7: Английский AAC / 2 ch / 48.0 KHz / 81 kbps / Commentary
Формат субтитров: softsub (SRT)

MediaInfo
General
Unique ID : 217958296767780029481697839942696394756 (0xA3F93DB49E5AE0729667660A65836004)
Complete name : C:\Users\Вика\Desktop\Candyman.Farewell.to.the.Flesh.1995.720p.BDRip.mkv
Format : Matroska
Format version : Version 4 / Version 2
File size : 7.36 GiB
Duration : 1h 35mn
Overall bit rate : 11.1 Mbps
Encoded date : UTC 2015-02-28 11:15:27
Writing application : mkvmerge v7.4.0 ('Circles') 64bit built on Dec 12 2014 12:19:56
Writing library : libebml v1.3.0 + libmatroska v1.4.1
Attachements : cover.jpg
_STATISTICS_WRITING_APP : mkvmerge v7.4.0 ('Circles') 64bit built on Dec 12 2014 12:19:56
_STATISTICS_WRITING_DATE_UTC : 2015-02-28 11:15:27
_STATISTICS_TAGS : BPS DURATION NUMBER_OF_FRAMES NUMBER_OF_BYTES
DURATION : 01:35:05.728000000
NUMBER_OF_FRAMES : 178304
NUMBER_OF_BYTES : 136937472
Video
ID : 1
Format : AVC
Format/Info : Advanced Video Codec
Format profile : High@L4.1
Format settings, CABAC : Yes
Format settings, ReFrames : 9 frames
Codec ID : V_MPEG4/ISO/AVC
Duration : 1h 35mn
Width : 1 280 pixels
Height : 694 pixels
Display aspect ratio : 1.85:1
Frame rate mode : Constant
Frame rate : 23.976 fps
Color space : YUV
Chroma subsampling : 4:2:0
Bit depth : 8 bits
Scan type : Progressive
Writing library : x264 core 144 r2525kMod 40bb568
Encoding settings : cabac=1 / ref=9 / deblock=1:-3:-3 / analyse=0x3:0x133 / me=esa / subme=10 / psy=1 / fade_compensate=0.00 / psy_rd=1.00:0.05 / mixed_ref=1 / me_range=24 / chroma_me=1 / trellis=2 / 8x8dct=1 / cqm=0 / deadzone=21,11 / fast_pskip=0 / chroma_qp_offset=-3 / threads=6 / lookahead_threads=1 / sliced_threads=0 / nr=0 / decimate=1 / interlaced=0 / bluray_compat=0 / constrained_intra=0 / fgo=0 / bframes=12 / b_pyramid=2 / b_adapt=2 / b_bias=0 / direct=3 / weightb=1 / open_gop=0 / weightp=2 / keyint=250 / keyint_min=23 / scenecut=40 / intra_refresh=0 / rc_lookahead=60 / rc=crf / mbtree=0 / crf=17.7000 / qcomp=0.65 / qpmin=0 / qpmax=69 / qpstep=4 / vbv_maxrate=62500 / vbv_bufsize=78125 / crf_max=0.0 / nal_hrd=none / filler=0 / ip_ratio=1.30 / pb_ratio=1.20 / aq=1:0.80
Language : English
Default : Yes
Forced : No
Color primaries : BT.709
Transfer characteristics : BT.709
Matrix coefficients : BT.709
_STATISTICS_WRITING_APP : mkvmerge v7.4.0 ('Circles') 64bit built on Dec 12 2014 12:19:56
_STATISTICS_WRITING_DATE_UTC : 2015-02-28 11:15:27
_STATISTICS_TAGS : BPS DURATION NUMBER_OF_FRAMES NUMBER_OF_BYTES
DURATION : 01:35:05.659000000
NUMBER_OF_FRAMES : 136799
NUMBER_OF_BYTES : 6700005324
Audio #1
ID : 2
Format : AC-3
Format/Info : Audio Coding 3
Mode extension : CM (complete main)
Format settings, Endianness : Big
Codec ID : A_AC3
Duration : 1h 35mn
Bit rate mode : Constant
Bit rate : 192 Kbps
Channel(s) : 2 channels
Channel positions : Front: L R
Sampling rate : 48.0 KHz
Bit depth : 16 bits
Compression mode : Lossy
Stream size : 131 MiB (2%)
Title : MVO
Language : Russian
Default : Yes
Forced : No
Audio #2
ID : 3
Format : AC-3
Format/Info : Audio Coding 3
Mode extension : CM (complete main)
Format settings, Endianness : Big
Codec ID : A_AC3
Duration : 1h 35mn
Bit rate mode : Constant
Bit rate : 192 Kbps
Channel(s) : 2 channels
Channel positions : Front: L R
Sampling rate : 48.0 KHz
Bit depth : 16 bits
Compression mode : Lossy
Stream size : 131 MiB (2%)
Title : DVO (НТВ+)
Language : Russian
Default : No
Forced : No
Audio #3
ID : 4
Format : AC-3
Format/Info : Audio Coding 3
Mode extension : CM (complete main)
Format settings, Endianness : Big
Codec ID : A_AC3
Duration : 1h 35mn
Bit rate mode : Constant
Bit rate : 192 Kbps
Channel(s) : 2 channels
Channel positions : Front: L R
Sampling rate : 48.0 KHz
Bit depth : 16 bits
Compression mode : Lossy
Stream size : 131 MiB (2%)
Title : AVO (А. Гаврилов)
Language : Russian
Default : No
Forced : No
Audio #4
ID : 5
Format : AC-3
Format/Info : Audio Coding 3
Mode extension : CM (complete main)
Format settings, Endianness : Big
Codec ID : A_AC3
Duration : 1h 35mn
Bit rate mode : Constant
Bit rate : 192 Kbps
Channel(s) : 2 channels
Channel positions : Front: L R
Sampling rate : 48.0 KHz
Bit depth : 16 bits
Compression mode : Lossy
Stream size : 131 MiB (2%)
Title : AVO (С. Визгунов)
Language : Russian
Default : No
Forced : No
Audio #5
ID : 6
Format : AC-3
Format/Info : Audio Coding 3
Mode extension : CM (complete main)
Format settings, Endianness : Big
Codec ID : A_AC3
Duration : 1h 35mn
Bit rate mode : Constant
Bit rate : 192 Kbps
Channel(s) : 2 channels
Channel positions : Front: L R
Sampling rate : 48.0 KHz
Bit depth : 16 bits
Compression mode : Lossy
Stream size : 131 MiB (2%)
Title : AVO (А. Кашкин)
Language : Russian
Default : No
Forced : No
Audio #6
ID : 7
Format : AC-3
Format/Info : Audio Coding 3
Mode extension : CM (complete main)
Format settings, Endianness : Big
Codec ID : A_AC3
Duration : 1h 35mn
Bit rate mode : Constant
Bit rate : 640 Kbps
Channel(s) : 6 channels
Channel positions : Front: L C R, Side: L R, LFE
Sampling rate : 48.0 KHz
Bit depth : 16 bits
Compression mode : Lossy
Stream size : 435 MiB (6%)
Language : English
Default : No
Forced : No
Audio #7
ID : 8
Format : AAC
Format/Info : Advanced Audio Codec
Format profile : LC
Codec ID : A_AAC
Duration : 1h 35mn
Channel(s) : 2 channels
Channel positions : Front: L R
Sampling rate : 48.0 KHz
Compression mode : Lossy
Delay relative to video : 9ms
Title : commentary
Language : English
Default : No
Forced : No
Text
ID : 9
Format : UTF-8
Codec ID : S_TEXT/UTF8
Codec ID/Info : UTF-8 Plain Text
Language : English
Default : No
Forced : No
Menu
00:00:00.000 : en:00:00:00.000
00:07:43.963 : en:00:07:43.963
00:15:28.386 : en:00:15:28.386
00:21:44.929 : en:00:21:44.929
00:30:27.492 : en:00:30:27.492
00:39:52.599 : en:00:39:52.599
00:46:29.870 : en:00:46:29.870
00:55:55.561 : en:00:55:55.561
01:06:10.425 : en:01:06:10.425
01:13:35.202 : en:01:13:35.202
01:19:36.605 : en:01:19:36.605
01:28:38.730 : en:01:28:38.730
Скриншоты
Скачать

Скачать торрент!

Как скачивать? · Что такое торрент? · Рейтинг и ограничения

Сайт не распространяет и не хранит электронные версии произведений, а лишь предоставляет доступ к создаваемому пользователями каталогу ссылок на торрент-файлы, которые содержат только списки хеш-сумм

[Профиль] [ЛС]
Показать сообщения:    
Ответить на тему

Текущее время: Сегодня 12:09

Часовой пояс: GMT + 4



Вы не можете начинать темы
Вы не можете отвечать на сообщения
Вы не можете редактировать свои сообщения
Вы не можете удалять свои сообщения
Вы не можете голосовать в опросах
Вы не можете прикреплять файлы к сообщениям
Вы не можете скачивать файлы