Беглец / The Fugitive (Эндрю Дэвис / Andrew Davis) [1993, США, боевик, триллер, криминал, детектив, приключения, BDRip 1080p] 3x Dub + MVO + 3x DVO + 5x AVO + Sub Rus, Eng + Original Eng

Ответить на тему
 
Автор Сообщение

user ®

Стаж: 7 лет 7 месяцев

Сообщений: 20008

Пост Пост: #1 от 03-Мар-2015 20:57

[Цитировать]

Беглец
The Fugitive
--Страна: США
Жанр: боевик, триллер, криминал, детектив, приключения
Год выпуска: 1993
Продолжительность: 02:10:17--Перевод: Дубляж, Blu-ray CEE
Перевод 2: Дубляж, Варус Видео
Перевод 3: Дубляж, Ленфильм
Перевод 4: Многоголосый закадровый, НТВ+
Перевод 5: Двухголосый закадровый, НТВ
Перевод 6: Двухголосый закадровый, ОРТ
Перевод 7: Двухголосый закадровый, TV1000
Перевод 8: Одноголосый закадровый, А. Гаврилов
Перевод 9: Одноголосый закадровый, Ю. Живов
Перевод 10: Одноголосый закадровый, диктор CDV
Перевод 11: Одноголосый закадровый, В. Горчаков
Перевод 12: Одноголосый закадровый, Л. Володарский
Cубтитры: русские, английские
Оригинальная аудиодорожка: английский--Режиссер: Эндрю Дэвис / Andrew Davis--В ролях: Харрисон Форд, Томми Ли Джонс, Джо Пантольяно, Ерун Краббе, Села Уорд, Джулианна Мур, Андреас Кацулас, Дэниэл Робак, Л. Скотт Колдуэлл, Том Вуд--Описание: Убитая жена. Однорукий мужчина. Одержимый детектив. Преследование начинается. Доктор Ричард Кимбл, чикагский хирург, ложно обвинен в убийстве своей жены.
Полный решимости доказать свою невиновность, доктор совершает побег из тюрьмы. Он хочет сам привести своих преследователей — служителей закона — к настоящему убийце.-- --Релиз: by Skazhutin--Тип релиза: BDRip 1080p (главы сохранены и подписаны)
Источник: 1080p CEE Blu-ray AVC DTS-HD MA 5.1-Mont
Контейнер: MKV
Сэмпл
Видео: 1920x1080 at 23.976 fps, x264@L4.1, 2pass, ~17500 kbps avg
Аудио#1: Russian: 48 kHz, AC3, 3/2 (L,C,R,l,r) + LFE ch, ~640 kbps avg |Дубляж, Blu-ray CEE|
Аудио#2: Russian: 48 kHz, AC3, 2/0 (L,R) ch, ~192 kbps avg |Дубляж, Варус Видео|
Аудио#3: Russian: 48 kHz, AC3, 2/0 (L,R) ch, ~192 kbps avg |Дубляж, Ленфильм|
Аудио#4: Russian: 48 kHz, AC3, 2/0 (L,R) ch, ~192 kbps avg |Многоголосый закадровый, НТВ+|
Аудио#5: Russian: 48 kHz, AC3, 2/0 (L,R) ch, ~192 kbps avg |Двухголосый закадровый, НТВ|
Аудио#6: Russian: 48 kHz, AC3, 2/0 (L,R) ch, ~192 kbps avg |Двухголосый закадровый, ОРТ|
Аудио#7: Russian: 48 kHz, AC3, 2/0 (L,R) ch, ~224 kbps avg |Двухголосый закадровый, TV1000|
Аудио#8: Russian: 48 kHz, AC3, 3/2 (L,C,R,l,r) + LFE ch, ~640 kbps avg |Одноголосый закадровый, А. Гаврилов|
Аудио#9: Russian: 48 kHz, AC3, 3/2 (L,C,R,l,r) + LFE ch, ~640 kbps avg |Одноголосый закадровый, Ю. Живов|
Аудио#10: Russian: 48 kHz, AC3, 2/0 (L,R) ch, ~192 kbps avg |Одноголосый закадровый, диктор CDV|
Аудио#11: Russian: 48 kHz, AC3, 3/2 (L,C,R,l,r) + LFE ch, ~448 kbps avg |Одноголосый закадровый, В. Горчаков|
Аудио#12: Russian: 48 kHz, AC3, 2/0 (L,R) ch, ~128 kbps avg |Одноголосый закадровый, Л. Володарский|
Аудио#13: English: 48 kHz, DTS, 3/2 (L,C,R,l,r) + LFE ch, ~1509 kbps avg |English|
Аудио#14: English: 48 kHz, AC3, 2/0 (L,R) ch, ~192 kbps avg |Commentary by Andrew Davis and Tommy Lee Jones|
Субтитры: Russian, English--

Скриншоты | MediaInfo
MediaInfo
General
Unique ID                      : 181105407438401564427770112830092740852 (0x883FA1FA6FBAA926BE2A086477F208F4)
Complete name                  : E:\TORRENTS\The.Fugitive.1993.1080p.BluRay.12xRus.Eng.HDCLUB-SbR.mkv
Format                         : Matroska
Format version                 : Version 4 / Version 2
File size                      : 21.0 GiB
Duration                       : 2h 10mn
Overall bit rate               : 23.1 Mbps
Movie name                     : The Fugitive (1993) - Release for HDCLUB by SbR
Encoded date                   : UTC 2014-09-12 10:55:00
Writing application            : mkvmerge v7.1.0 ('Good Love') 64bit built on Jul 27 2014 13:06:55
Writing library                : libebml v1.3.0 + libmatroska v1.4.1
Attachements                   : cover.jpg / xlog.txt
Video
ID                             : 1
Format                         : AVC
Format/Info                    : Advanced Video Codec
Format profile                 : High@L4.1
Format settings, CABAC         : Yes
Format settings, ReFrames      : 4 frames
Codec ID                       : V_MPEG4/ISO/AVC
Duration                       : 2h 10mn
Bit rate                       : 17.5 Mbps
Width                          : 1 920 pixels
Height                         : 1 080 pixels
Display aspect ratio           : 16:9
Frame rate mode                : Constant
Frame rate                     : 23.976 fps
Color space                    : YUV
Chroma subsampling             : 4:2:0
Bit depth                      : 8 bits
Scan type                      : Progressive
Bits/(Pixel*Frame)             : 0.352
Stream size                    : 15.5 GiB (74%)
Title                          : Release for HDCLUB
Writing library                : x264 core 138 r2359+704+48 3f879a0 tMod [8-bit@4:2:0 X86_64]
Encoding settings              : cabac=1 / ref=4 / deblock=1:-2:-2 / analyse=0x3:0x113 / me=umh / subme=11 / psy=1 / fade_compensate=0.00 / psy_rd=1.00:0.00 / mixed_ref=1 / me_range=48 / chroma_me=1 / trellis=2 / 8x8dct=1 / cqm=0 / deadzone=21,11 / fast_pskip=0 / chroma_qp_offset=-2 / threads=12 / lookahead_threads=2 / sliced_threads=0 / nr=0 / decimate=1 / interlaced=0 / bluray_compat=0 / constrained_intra=0 / fgo=0 / bframes=8 / b_pyramid=2 / b_adapt=2 / b_bias=0 / direct=3 / weightb=1 / open_gop=0 / weightp=2 / keyint=250 / keyint_min=23 / scenecut=40 / intra_refresh=0 / rc_lookahead=120 / rc=2pass / mbtree=1 / bitrate=17500 / ratetol=1.0 / qcomp=0.80 / qpmin=0:0:0 / qpmax=69:69:69 / qpstep=4 / cplxblur=20.0 / qblur=0.5 / vbv_maxrate=62500 / vbv_bufsize=78125 / nal_hrd=none / ip_ratio=1.40 / aq=4:0.70 / aq-sensitivity=11.00 / aq-factor=1.00:1.00:1.00 / aq2=1:0.60 / aq2-sensitivity=9.00 / aq2-factor=1.00:1.00:1.00 / aq3=1:[0.60:0.60]:[0.60:0.60]:[0.60:0.60]:[0.60:0.60] / aq3-sensitivity=10.00 / aq3-factor=[1.00:1.00]:[1.00:1.00]:[1.00:1.00] / aq3-boundary=192:64:24
Language                       : English
Default                        : Yes
Forced                         : No
Color primaries                : BT.709
Transfer characteristics       : BT.709
Matrix coefficients            : BT.709
Audio #1
ID                             : 2
Format                         : AC-3
Format/Info                    : Audio Coding 3
Mode extension                 : CM (complete main)
Format settings, Endianness    : Big
Codec ID                       : A_AC3
Duration                       : 2h 10mn
Bit rate mode                  : Constant
Bit rate                       : 640 Kbps
Channel(s)                     : 6 channels
Channel positions              : Front: L C R, Side: L R, LFE
Sampling rate                  : 48.0 KHz
Bit depth                      : 16 bits
Compression mode               : Lossy
Stream size                    : 596 MiB (3%)
Title                          : Dub, Мост-Видео/BD
Language                       : Russian
Default                        : Yes
Forced                         : No
Audio #2
ID                             : 3
Format                         : AC-3
Format/Info                    : Audio Coding 3
Mode extension                 : CM (complete main)
Format settings, Endianness    : Big
Codec ID                       : A_AC3
Duration                       : 2h 10mn
Bit rate mode                  : Constant
Bit rate                       : 192 Kbps
Channel(s)                     : 2 channels
Channel positions              : Front: L R
Sampling rate                  : 48.0 KHz
Bit depth                      : 16 bits
Compression mode               : Lossy
Stream size                    : 179 MiB (1%)
Title                          : Dub, Варус Видео
Language                       : Russian
Default                        : No
Forced                         : No
Audio #3
ID                             : 4
Format                         : AC-3
Format/Info                    : Audio Coding 3
Mode extension                 : CM (complete main)
Format settings, Endianness    : Big
Codec ID                       : A_AC3
Duration                       : 2h 10mn
Bit rate mode                  : Constant
Bit rate                       : 192 Kbps
Channel(s)                     : 2 channels
Channel positions              : Front: L R
Sampling rate                  : 48.0 KHz
Bit depth                      : 16 bits
Compression mode               : Lossy
Stream size                    : 179 MiB (1%)
Title                          : Dub, Ленфильм
Language                       : Russian
Default                        : No
Forced                         : No
Audio #4
ID                             : 5
Format                         : AC-3
Format/Info                    : Audio Coding 3
Mode extension                 : CM (complete main)
Format settings, Endianness    : Big
Codec ID                       : A_AC3
Duration                       : 2h 10mn
Bit rate mode                  : Constant
Bit rate                       : 192 Kbps
Channel(s)                     : 2 channels
Channel positions              : Front: L R
Sampling rate                  : 48.0 KHz
Bit depth                      : 16 bits
Compression mode               : Lossy
Stream size                    : 179 MiB (1%)
Title                          : MVO, НТВ+
Language                       : Russian
Default                        : No
Forced                         : No
Audio #5
ID                             : 6
Format                         : AC-3
Format/Info                    : Audio Coding 3
Mode extension                 : CM (complete main)
Format settings, Endianness    : Big
Codec ID                       : A_AC3
Duration                       : 2h 10mn
Bit rate mode                  : Constant
Bit rate                       : 192 Kbps
Channel(s)                     : 2 channels
Channel positions              : Front: L R
Sampling rate                  : 48.0 KHz
Bit depth                      : 16 bits
Compression mode               : Lossy
Stream size                    : 179 MiB (1%)
Title                          : DVO, НТВ
Language                       : Russian
Default                        : No
Forced                         : No
Audio #6
ID                             : 7
Format                         : AC-3
Format/Info                    : Audio Coding 3
Mode extension                 : CM (complete main)
Format settings, Endianness    : Big
Codec ID                       : A_AC3
Duration                       : 2h 10mn
Bit rate mode                  : Constant
Bit rate                       : 192 Kbps
Channel(s)                     : 2 channels
Channel positions              : Front: L R
Sampling rate                  : 48.0 KHz
Bit depth                      : 16 bits
Compression mode               : Lossy
Stream size                    : 179 MiB (1%)
Title                          : DVO, ОРТ
Language                       : Russian
Default                        : No
Forced                         : No
Audio #7
ID                             : 8
Format                         : AC-3
Format/Info                    : Audio Coding 3
Mode extension                 : CM (complete main)
Format settings, Endianness    : Big
Codec ID                       : A_AC3
Duration                       : 2h 10mn
Bit rate mode                  : Constant
Bit rate                       : 224 Kbps
Channel(s)                     : 2 channels
Channel positions              : Front: L R
Sampling rate                  : 48.0 KHz
Bit depth                      : 16 bits
Compression mode               : Lossy
Stream size                    : 209 MiB (1%)
Title                          : DVO, TV1000
Language                       : Russian
Default                        : No
Forced                         : No
Audio #8
ID                             : 9
Format                         : AC-3
Format/Info                    : Audio Coding 3
Mode extension                 : CM (complete main)
Format settings, Endianness    : Big
Codec ID                       : A_AC3
Duration                       : 2h 10mn
Bit rate mode                  : Constant
Bit rate                       : 640 Kbps
Channel(s)                     : 6 channels
Channel positions              : Front: L C R, Side: L R, LFE
Sampling rate                  : 48.0 KHz
Bit depth                      : 16 bits
Compression mode               : Lossy
Stream size                    : 596 MiB (3%)
Title                          : VO, Гаврилов
Language                       : Russian
Default                        : No
Forced                         : No
Audio #9
ID                             : 10
Format                         : AC-3
Format/Info                    : Audio Coding 3
Mode extension                 : CM (complete main)
Format settings, Endianness    : Big
Codec ID                       : A_AC3
Duration                       : 2h 10mn
Bit rate mode                  : Constant
Bit rate                       : 640 Kbps
Channel(s)                     : 6 channels
Channel positions              : Front: L C R, Side: L R, LFE
Sampling rate                  : 48.0 KHz
Bit depth                      : 16 bits
Compression mode               : Lossy
Stream size                    : 596 MiB (3%)
Title                          : VO, Живов
Language                       : Russian
Default                        : No
Forced                         : No
Audio #10
ID                             : 11
Format                         : AC-3
Format/Info                    : Audio Coding 3
Mode extension                 : CM (complete main)
Format settings, Endianness    : Big
Codec ID                       : A_AC3
Duration                       : 2h 10mn
Bit rate mode                  : Constant
Bit rate                       : 192 Kbps
Channel(s)                     : 2 channels
Channel positions              : Front: L R
Sampling rate                  : 48.0 KHz
Bit depth                      : 16 bits
Compression mode               : Lossy
Stream size                    : 179 MiB (1%)
Title                          : VO, диктор CDV
Language                       : Russian
Default                        : No
Forced                         : No
Audio #11
ID                             : 12
Format                         : AC-3
Format/Info                    : Audio Coding 3
Mode extension                 : CM (complete main)
Format settings, Endianness    : Big
Codec ID                       : A_AC3
Duration                       : 2h 10mn
Bit rate mode                  : Constant
Bit rate                       : 448 Kbps
Channel(s)                     : 6 channels
Channel positions              : Front: L C R, Side: L R, LFE
Sampling rate                  : 48.0 KHz
Bit depth                      : 16 bits
Compression mode               : Lossy
Stream size                    : 418 MiB (2%)
Title                          : VO, Горчаков
Language                       : Russian
Default                        : No
Forced                         : No
Audio #12
ID                             : 13
Format                         : AC-3
Format/Info                    : Audio Coding 3
Mode extension                 : CM (complete main)
Format settings, Endianness    : Big
Codec ID                       : A_AC3
Duration                       : 2h 10mn
Bit rate mode                  : Constant
Bit rate                       : 128 Kbps
Channel(s)                     : 2 channels
Channel positions              : Front: L R
Sampling rate                  : 48.0 KHz
Bit depth                      : 16 bits
Compression mode               : Lossy
Stream size                    : 119 MiB (1%)
Title                          : VO, Володарский
Language                       : Russian
Default                        : No
Forced                         : No
Audio #13
ID                             : 14
Format                         : DTS
Format/Info                    : Digital Theater Systems
Mode                           : 16
Format settings, Endianness    : Big
Codec ID                       : A_DTS
Duration                       : 2h 10mn
Bit rate mode                  : Constant
Bit rate                       : 1 509 Kbps
Channel(s)                     : 6 channels
Channel positions              : Front: L C R, Side: L R, LFE
Sampling rate                  : 48.0 KHz
Bit depth                      : 24 bits
Compression mode               : Lossy
Stream size                    : 1.37 GiB (7%)
Language                       : English
Default                        : No
Forced                         : No
Audio #14
ID                             : 15
Format                         : AC-3
Format/Info                    : Audio Coding 3
Format profile                 : Dolby Digital
Mode extension                 : CM (complete main)
Format settings, Endianness    : Big
Codec ID                       : A_AC3
Duration                       : 2h 10mn
Bit rate mode                  : Constant
Bit rate                       : 192 Kbps
Channel(s)                     : 2 channels
Channel positions              : Front: L R
Sampling rate                  : 48.0 KHz
Bit depth                      : 16 bits
Compression mode               : Lossy
Stream size                    : 179 MiB (1%)
Title                          : Commentary by Andrew Davis and Tommy Lee Jones
Language                       : English
Default                        : No
Forced                         : No
Text #1
ID                             : 16
Format                         : UTF-8
Codec ID                       : S_TEXT/UTF8
Codec ID/Info                  : UTF-8 Plain Text
Language                       : Russian
Default                        : No
Forced                         : No
Text #2
ID                             : 17
Format                         : UTF-8
Codec ID                       : S_TEXT/UTF8
Codec ID/Info                  : UTF-8 Plain Text
Language                       : English
Default                        : No
Forced                         : No
Text #3
ID                             : 18
Format                         : UTF-8
Codec ID                       : S_TEXT/UTF8
Codec ID/Info                  : UTF-8 Plain Text
Title                          : SDH
Language                       : English
Default                        : No
Forced                         : No
Menu
00:00:00.000                   : en:Murder Most Brutal
00:04:51.457                   : en:Interrogation; "You Find This Man!"
00:09:40.955                   : en:Trial And Sentencing
00:12:59.779                   : en:The Bus To Menard
00:14:51.599                   : en:Out Of Control
00:16:36.745                   : en:Train Coming
00:18:54.341                   : en:"Just Don't Follow Me"
00:20:22.012                   : en:Gerard Takes Charge
00:23:10.305                   : en:"Your Fugitive's Name Is Dr. Richard Kimble"
00:25:36.076                   : en:Teamwork
00:26:31.631                   : en:"Every Time I Look In The MIrror, Pal"
00:29:48.328                   : en:Instant Diagnosis
00:31:27.760                   : en:Overhead Pursuit
00:34:23.978                   : en:Underground Pursuit
00:36:46.996                   : en:"I Didn't Kill My Wife"
00:38:04.615                   : en:Taking The Plunge
00:39:43.798                   : en:River Search
00:42:20.913                   : en:Bad Dreams; A New Look
00:45:36.775                   : en:Raid On Copeland's House
00:48:37.080                   : en:"I Don't Bargain"
00:50:08.213                   : en:Back In Chicago
00:53:28.580                   : en:Meeting Nichols
00:56:02.692                   : en:Cook County Hospital
00:59:21.975                   : en:Background Checks
01:02:54.645                   : en:House Under Siege
01:07:46.312                   : en:Practicing Medicine
01:13:51.343                   : en:An Interest In Prosthetics
01:15:43.413                   : en:Visiting Clive Driscoll
01:19:18.295                   : en:Face To Face
01:21:55.911                   : en:The Luck Of The Irish
01:24:44.662                   : en:Breaking And Entering
01:29:49.133                   : en:A Big Piece Of The Puzzle
01:35:28.597                   : en:"It Was Me They Were After"
01:37:01.065                   : en:Over This Ground Before
01:40:55.257                   : en:Someone With Access
01:44:26.301                   : en:Marked Man On The El
01:50:06.182                   : en:An Interrupted Speech
01:54:45.295                   : en:Mayhem On The Roof
01:58:30.269                   : en:Stalkers In The Laundry
02:02:43.773                   : en:Time To Stop Running
02:04:07.022                   : en:Their Secret
02:05:52.461                   : en:End Credits


Награды, премии, номинации...
-
-
Скачать

Скачать торрент!

Как скачивать? · Что такое торрент? · Рейтинг и ограничения

Сайт не распространяет и не хранит электронные версии произведений, а лишь предоставляет доступ к создаваемому пользователями каталогу ссылок на торрент-файлы, которые содержат только списки хеш-сумм

[Профиль] [ЛС]
Показать сообщения:    
Ответить на тему

Текущее время: Сегодня 00:11

Часовой пояс: GMT + 4



Вы не можете начинать темы
Вы не можете отвечать на сообщения
Вы не можете редактировать свои сообщения
Вы не можете удалять свои сообщения
Вы не можете голосовать в опросах
Вы не можете прикреплять файлы к сообщениям
Вы не можете скачивать файлы