Цветы / Flowers (Фил Стивенс / Phil Stevens) [2015, США, ужасы, сюрреализм, DVDRip] VO (den904) + Original Eng

Ответить на тему
 
Автор Сообщение

user ®

Стаж: 7 лет 7 месяцев

Сообщений: 20008

Пост Пост: #1 от 02-Мар-2015 10:00

[Цитировать]

Цветы / Flowers
Страна: США
Жанр: ужасы, сюрреализм
Год выпуска: 2015
Продолжительность: 01:20:31
Перевод: Не требуется В фильме нет диалогов, титры читает den904
Cубтитры: нет
Оригинальная аудиодорожка: английский
Режиссер: Фил Стивенс / Phil Stevens
В ролях: Колетт Кенни МакКена, Кристал Фитч, Анастасия Блю, Таня Эрин Паоли, кара А. Христиансен, Макария Цапторис, Брайан У. Лор, Рэйчел Килинг
Описание: Это абстрактный, сюрреалистичный фильм ужасов? Cюжет которого сосредотачивается на шести мертвых женщинах, которые оживают в подполье дома их убийцы.
Доп. информация: http://www.imdb.com/title/tt4248930/
Сэмпл: http://multi-up.com/1035711
Качество видео: DVDRip
Формат видео: AVI
Видео: 720x400 (1.80:1), 29.970 fps, XviD build 62 ~2137 kbps avg, 0.25 bit/pixel
Аудио: 48 kHz, AC3 Dolby Digital, 2/0 (L,R) ch, ~256.00 kbps avg
Внимание!!! Обязательно к прочтению!:
ВНИМАНИЕ!!! В фильме содержатся эротические моменты, сцены насилия и жестокости, а так же шокирующие сцены!!! Людям слабонервным, детям, беременным женщинам, беременным на голову, лицам моложе 18-ти лет и борцам за нравственность смотреть категорически не рекомендуется!!!
MediaInfo
Общее
Полное имя : J:\Видео\Flowers (2015) DVDRip.avi
Формат : AVI
Формат/Информация : Audio Video Interleave
Профиль формата : OpenDML
Настройки формата : rec
Размер файла : 1,35 Гбайт
Продолжительность : 1 ч. 20 м.
Общий поток : 2402 Кбит/сек
Программа кодирования : AVI-Mux GUI 1.17.8.3, Feb 16 201019:42:50
Видео
Идентификатор : 0
Формат : MPEG-4 Visual
Идентификатор кодека : XVID
Идентификатор кодека/Подсказка : XviD
Продолжительность : 1 ч. 20 м.
Продолжительность оригинала : 8 с. 709 мс.
Битрейт : 1372 бит/сек
Ширина : 720 пикселей
Высота : 400 пикселей
Соотношение сторон : 16:9
Частота кадров : 29,970 кадров/сек
Цветовое пространство : YUV
Субдискретизация насыщенности : 4:2:0
Метод сжатия : С потерями
Бит/(Пиксели*Кадры) : 0.000
Размер потока : 809 Кбайт (0%)
Аудио
Идентификатор : 1
Формат : AC-3
Формат/Информация : Audio Coding 3
Идентификатор кодека : 2000
Продолжительность : 1 ч. 20 м.
Продолжительность оригинала : 8 с. 896 мс.
Вид битрейта : Постоянный
Битрейт : 256 Кбит/сек
Каналы : 2 канала
Частота : 48,0 КГц
Метод сжатия : С потерями
Размер потока : 278 Кбайт (0%)
Выравнивание : Соединение по промежуткам
Продолжительность промежутка : 63 мс. (1,88 видеокадра)
Время предзагрузки промежутка : 192 мс.
Заголовок : rus_147
Скриншот c названием фильма Скриншоты
Скачать

Скачать торрент!

Как скачивать? · Что такое торрент? · Рейтинг и ограничения

Сайт не распространяет и не хранит электронные версии произведений, а лишь предоставляет доступ к создаваемому пользователями каталогу ссылок на торрент-файлы, которые содержат только списки хеш-сумм

[Профиль] [ЛС]
Показать сообщения:    
Ответить на тему

Текущее время: Сегодня 13:53

Часовой пояс: GMT + 4



Вы не можете начинать темы
Вы не можете отвечать на сообщения
Вы не можете редактировать свои сообщения
Вы не можете удалять свои сообщения
Вы не можете голосовать в опросах
Вы не можете прикреплять файлы к сообщениям
Вы не можете скачивать файлы