Простить за всё (Павел Снисаренко) [2015, Мелодрама, HDTVRip]

Ответить на тему
 
Автор Сообщение

user ®

Стаж: 7 лет 7 месяцев

Сообщений: 20008

Пост Пост: #1 от 02-Мар-2015 03:27

[Цитировать]

Простить за всё
Год выпуска: 2015
Жанр: Мелодрама
Производство: Россия, Паламеда Продакшн
Продолжительность: 01:30:50
Субтитры: нет
Режиссёр: Павел Снисаренко
В ролях: Марина Денисова, Андрей Фролов, Николай Иванов, Маша Мацель, Олеся Грибок
Описание: Муж Михаил не сделал Анну счастливой. Он пропадает вечерами, приходит нетрезвым. Жизнь Анны катится под откос. Но всё меняется, когда в школу, где Анна работает учителем, приходит новый учитель ОБЖ Андрей. Когда-то Анна и Андрей любили друг друга, но Анна уже много лет считает, что Андрея нет в живых. Анна оскорблена: если бы Андрей нашел возможность сообщить ей, что он жив, её жизнь могла бы быть счастливой. А тем временем Михаил втягивает Анну в серьёзные неприятности. И помочь ей может только один человек — Андрей. Но для того, чтобы это произошло, надо превозмочь свою гордость и простить за всё…

Качество: HDTVRip
Контейнер: AVI
Видео: 720x400 (1.80:1), 25 fps, XviD build 73 ~1939 kbps avg, 0.27 bit/pixel
Аудио: 48 kHz, AC3 Dolby Digital, 2/0 (L,R) ch, ~192 kbps
Сторонней рекламы нет!
MediaInfo
Общее
Полное имя : F:\Prostit.za.vsё.2015.HDTVRip.Files-x.avi
Формат : AVI
Формат/Информация : Audio Video Interleave
Размер файла : 1,37 Гбайт
Продолжительность : 1 ч. 31 м.
Общий поток : 2142 Кбит/сек
Программа кодирования : VirtualDubMod 1.5.10.3 | www.virtualdub-fr.org || (build 2550/release)
Библиотека кодирования : VirtualDubMod build 2550/release
Видео
Идентификатор : 0
Формат : MPEG-4 Visual
Профиль формата : Advanced Simple@L5
Параметр BVOP формата : 1
Параметр QPel формата : Нет
Параметр GMC формата : Без точки перехода
Параметр матрицы формата : Выборочная
Идентификатор кодека : XVID
Идентификатор кодека/Подсказка : XviD
Продолжительность : 1 ч. 31 м.
Битрейт : 1940 Кбит/сек
Ширина : 720 пикс.
Высота : 400 пикс.
Соотношение сторон : 16:9
Частота кадров : 25,000 кадр/сек
Цветовое пространство : YUV
Подвыборка цветности : 4:2:0
Битовая глубина : 8 бит
Тип развёртки : Прогрессивная
Метод сжатия : С потерями
Бит/(Пиксели*Кадры) : 0.269
Размер потока : 1,24 Гбайт (91%)
Библиотека кодирования : XviD 73
Аудио
Идентификатор : 1
Формат : AC-3
Формат/Информация : Audio Coding 3
Расширение режима : CM (complete main)
Идентификатор кодека : 2000
Продолжительность : 1 ч. 31 м.
Вид битрейта : Постоянный
Битрейт : 192 Кбит/сек
Каналы : 2 канала
Расположение каналов : Front: L R
Частота : 48,0 КГц
Битовая глубина : 16 бит
Метод сжатия : С потерями
Размер потока : 126 Мбайт (9%)
Выравнивание : Разделение по промежуткам
Продолжительность промежутка : 40 мс. (1,00 видеокадр)
Время предзагрузки промежутка : 500 ms
Раздача группы:
Рип:
Оформление:
Скриншот c названием фильма Скриншоты
Скачать

Скачать торрент!

Как скачивать? · Что такое торрент? · Рейтинг и ограничения

Сайт не распространяет и не хранит электронные версии произведений, а лишь предоставляет доступ к создаваемому пользователями каталогу ссылок на торрент-файлы, которые содержат только списки хеш-сумм

[Профиль] [ЛС]
Показать сообщения:    
Ответить на тему

Текущее время: Сегодня 21:41

Часовой пояс: GMT + 4



Вы не можете начинать темы
Вы не можете отвечать на сообщения
Вы не можете редактировать свои сообщения
Вы не можете удалять свои сообщения
Вы не можете голосовать в опросах
Вы не можете прикреплять файлы к сообщениям
Вы не можете скачивать файлы