По мёртвым не плачут / No Tears For The Dead (Ли Чжон Бом / Lee Jeong Beom) [2014, Южная Корея, боевик, драма, HDRip] MVO (STEPonee)

Ответить на тему
 
Автор Сообщение

user ®

Стаж: 13 лет

Сообщений: 15071

Пост Пост: #1 от 02-Мар-2015 00:15

[Цитировать]

По мёртвым не плачут / No Tears For The Dead / 우는 남자 / Woo-neun nam-ja
Год выпуска: 2014
Страна: Южная Корея
Жанр: боевик, драма
Продолжительность: 01:56:26
Перевод: любительский (многоголосый закадровый) [STEPonee]

Русские субтитры: нет
Режиссёр: Ли Чжон Бом (Lee Jeong Beom)
В ролях:
  • Чан Дон Гон (Jang Dong Gun) - Гон
  • Ким Мин Хи (Kim Min Hee) - Чхве Мо Гён
  • Брайан Ти (Brian Tee) - Чарли
  • Ким Мин Чже (Kim Min Jae) - Пака, глава группы следователей
  • Ким Хи Вон (Kim Hee Won) - директор Бён
  • Чжон Пэ Су (Jeon Bae Su) - Детектив Чан
    Описание
    Профессионального киллера Гона, "работавющего" в Соединённых Штатах, нанимают для очередного убийства. На сей раз его нужно совершить в Южной Корее, а цель - женщина, чью маленькую дочь сам Гон когда-то застрелил по ошибке.
    Сэмпл
    Роли озвучивали:
  • Георгий Ерунков
  • Наталья Скребнева
  • Юрий Балякин
  • Елена Рузаева
  • Натиа Макаридзе
    Перевод на русский язык: ФСГ "Азалии"
    Отчёт MediaInfo
General
Complete name : No.Tears.For.The.Dead.2014.HDRip.H264.720p.AC3.MVO.STEPonee
Format : AVI
Format/Info : Audio Video Interleave
Format profile : OpenDML
File size : 2.05 GiB
Duration : 1h 56mn
Overall bit rate : 2 525 Kbps
Writing application : VirtualDubMod 1.5.10.3 | www.virtualdub-fr.org || (build 2550/release)
Writing library : VirtualDubMod build 2550/release
Video
ID : 0
Format : MPEG-4 Visual
Format profile : Advanced Simple@L5
Format settings, BVOP : 1
Format settings, QPel : No
Format settings, GMC : No warppoints
Format settings, Matrix : Default (H.263)
Codec ID : XVID
Codec ID/Hint : XviD
Duration : 1h 56mn
Bit rate : 2 065 Kbps
Width : 720 pixels
Height : 304 pixels
Display aspect ratio : 2.35:1
Frame rate : 23.976 fps
Color space : YUV
Chroma subsampling : 4:2:0
Bit depth : 8 bits
Scan type : Progressive
Compression mode : Lossy
Bits/(Pixel*Frame) : 0.393
Stream size : 1.68 GiB (82%)
Writing library : XviD 1.2.1 (UTC 2008-12-04)
Audio
ID : 1
Format : AC-3
Format/Info : Audio Coding 3
Mode extension : CM (complete main)
Format settings, Endianness : Big
Codec ID : 2000
Duration : 1h 56mn
Bit rate mode : Constant
Bit rate : 448 Kbps
Channel(s) : 6 channels
Channel positions : Front: L C R, Side: L R, LFE
Sampling rate : 48.0 KHz
Bit depth : 16 bits
Compression mode : Lossy
Stream size : 373 MiB (18%)
Alignment : Split accross interleaves
Interleave, duration : 42 ms (1.00 video frame)
Interleave, preload duration : 500 ms
Качество: HDRip (No.Tears.for.the.Dead.2014.720p.BluRay.DTS.x264-iFT)
Формат: AVI
Видео: XviD, 720x304 (16:9), 23,976 к/с, 2065 кбит/с
Аудио: AC3 5.1, 48 кГц, 448 кбит/с
Скриншот c названием фильма Скриншоты Подготовка релиза:
  • Юрий Балякин - обработка звука, монтаж
  • Мария Воробьева - тайминг
  • Екатерина Проц - постер
    Все раздачи студии
[url=http://***/forum/tracker.php?nm=steponee]Все разделы[/url]
[url=http://***/forum/tracker.php?f=915&nm=steponee]Корейские сериалы[/url]
[url=http://***/forum/tracker.php?f=1939&nm=steponee]Японские сериалы[/url]
[url=http://***/forum/tracker.php?f=2412&nm=steponee]Прочие азиатские сериалы[/url]
[url=http://***/forum/tracker.php?f=934&nm=steponee]Азиатские фильмы[/url]
[url=http://***/forum/tracker.php?rid=2669478/]Мои переводы и раздачи[/url]
Скачать

Скачать торрент! По мёртвым не плачут / No Tears For The Dead (Ли Чжон Бом / Lee Jeong Beom) [2014, Южная Корея, боевик, драма, HDRip] MVO (STEPonee)

Как скачивать? · Что такое торрент? · Рейтинг и ограничения

Сайт не распространяет и не хранит электронные версии произведений, а лишь предоставляет доступ к создаваемому пользователями каталогу ссылок на торрент-файлы, которые содержат только списки хеш-сумм

[Профиль] [ЛС]
Показать сообщения:    
Ответить на тему

Текущее время: Сегодня 12:24

Часовой пояс: GMT + 4



Вы не можете начинать темы
Вы не можете отвечать на сообщения
Вы не можете редактировать свои сообщения
Вы не можете удалять свои сообщения
Вы не можете голосовать в опросах
Вы не можете прикреплять файлы к сообщениям
Вы не можете скачивать файлы