О, счастливчик! (Эдуард Парри) [2009, Комедия, приключения, фэнтези, BDRip]

Ответить на тему
 
Автор Сообщение

user ®

Стаж: 7 лет 7 месяцев

Сообщений: 20008

Пост Пост: #1 от 02-Мар-2015 00:15

[Цитировать]

О, счастливчик!
Жанр: Комедия, приключения, фэнтези
Год выпуска: 2009
Продолжительность: 01:35:53
Режиссёр: Эдуард Парри
В ролях: Михаил Тарабукин, Владимир Меньшов, Сергей Шакуров, Владимир Кристовский, Ольга Полякова, Вячеслав Разбегаев, Семен Фурман, Сергей Векслер, Армен Джигарханян, Алексей Панин, Андрей Мерзликин, Максим Коновалов, Виталий Хаев, Сергей Зверев, Александр Стефанцов, Игорь Куролесов, Алексей Дмитриев, Александр Ясинский, Евгений Хоменок, Дмитрий Гаврилов, Елена Лабутина
Описание: Это молодёжная комедия о том, как в один прекрасный день, Славику, обычному молодому человеку показалось, что жизнь его слишком банальна, непримечательна и лишена всяческого смысла. У него нет приличной работы, образования, девушки… Он решает умереть, прыгнув с моста. Но неожиданно появляются два экстравагантных джентльмена: Олег Генрихович и Константин Германович, которые убеждают героя в том, что самоубийство - не выход. Ему предлагают поменять свою биографию и начать новую благополучную жизнь. Но как только Славик избавляется от собственных проблем, тут же начинаются новые! Игра в «чужую» жизнь превращается в калейдоскоп веселых, грустных, а порой и страшных историй...

Качество видео: BDRip [Исходник: Blu-ray RUS 1080p AVC LPCM 5.1]
Формат видео: AVI
Видео: XviD, 1727 Кбит/с, 720x304 (2.35:1), 24 кадр/с
Аудио: Русский, Dolby AC3, 48000 Гц, 448 Кбит/с, 6 каналов (5.1)

Автор рипа - ivandubskoj
MediaInfo
General
Complete name : O.schastlivchik.2009.BDRip.avi
Format : AVI
Format/Info : Audio Video Interleave
File size : 1.46 GiB
Duration : 1h 35mn
Overall bit rate : 2 183 Kbps
Writing application : VirtualDubMod 1.5.10.3 (build 2550/release)
Writing library : VirtualDubMod build 2550/release
Copyright : rip by ivandubskoj
Video
ID : 0
Format : MPEG-4 Visual
Format profile : Advanced Simple@L5
Format settings, BVOP : 1
Format settings, QPel : No
Format settings, GMC : No warppoints
Format settings, Matrix : Custom
Codec ID : XVID
Codec ID/Hint : XviD
Duration : 1h 35mn
Bit rate : 1 727 Kbps
Width : 720 pixels
Height : 304 pixels
Display aspect ratio : 2.35:1
Frame rate : 24.000 fps
Color space : YUV
Chroma subsampling : 4:2:0
Bit depth : 8 bits
Scan type : Progressive
Compression mode : Lossy
Bits/(Pixel*Frame) : 0.329
Stream size : 1.16 GiB (79%)
Writing library : XviD 73
Audio
ID : 1
Format : AC-3
Format/Info : Audio Coding 3
Mode extension : CM (complete main)
Codec ID : 2000
Duration : 1h 35mn
Bit rate mode : Constant
Bit rate : 448 Kbps
Channel(s) : 6 channels
Channel positions : Front: L C R, Side: L R, LFE
Sampling rate : 48.0 KHz
Bit depth : 16 bits
Compression mode : Lossy
Stream size : 307 MiB (21%)
Alignment : Split accross interleaves
Interleave, duration : 64 ms (1.54 video frames)
Interleave, preload duration : 500 ms
Скриншот c названием фильма Скриншоты
Скачать

Скачать торрент!

Как скачивать? · Что такое торрент? · Рейтинг и ограничения

Сайт не распространяет и не хранит электронные версии произведений, а лишь предоставляет доступ к создаваемому пользователями каталогу ссылок на торрент-файлы, которые содержат только списки хеш-сумм

[Профиль] [ЛС]
Показать сообщения:    
Ответить на тему

Текущее время: Сегодня 05:03

Часовой пояс: GMT + 4



Вы не можете начинать темы
Вы не можете отвечать на сообщения
Вы не можете редактировать свои сообщения
Вы не можете удалять свои сообщения
Вы не можете голосовать в опросах
Вы не можете прикреплять файлы к сообщениям
Вы не можете скачивать файлы