Икари-но мати / Жестокий мир / Ikari no machi / The Angry Street (Микио Нарусэ / Mikio Naruse) [1950, Япония, драма, DVDRip] (Rus) (Eng) + Sub

Ответить на тему
 
Автор Сообщение

user ®

Стаж: 13 лет

Сообщений: 15071

Пост Пост: #1 от 01-Мар-2015 11:30

[Цитировать]

Икари-но мати / Жестокий мир / Ikari no machi / The Angry Street / 怒りの街
Страна: Япония
Жанр: драма
Год выпуска: 1950
Продолжительность: 01:44:59
Перевод 1: Субтитры русские - [url=http://***/forum/tracker.php?rid=6473541]дед_сто_лет[/url]©
Перевод 2: Субтитры английские - Guy YASKO
Оригинальная аудиодорожка: японский
Режиссер: [url=http://***/forum/tracker.php?nm=Mikio%20Naruse]Микио Нарусэ / Mikio Naruse[/url]
В ролях: Дзюкити УНО, Ясуми ХАРА, Юрико ХАМАДА, Сэцуко ВАКАЯМА, Ёсико КУГА, Кумико МОКУСЁ, Такаси СИМУРА, Итиро СУГАИ, Кан ЯНАГИЯ, Мицуэ ТАТИБАНА, Миэ АСО, Тиэко ХИГАСИЯМА, Сатико МУРАСЭ, Кэйко КИСИ, Исао КИМУРА, Фудзио НАГАХАМА, Исао УБУКАТА, Хироси КОНДО, Киёси КАМОДА, Ко ИСИДА
Описание: В этом нравоучительном фильме Нарусэ представляет в качестве главного героя не женщину, а двух друзей студентов, которые в условиях послевоенной разрухи находят легкий способ разжиться деньгами. Только отношение к этому нечестному делу у них разное. Мори сгорает от стыда, Судо мечтает о более выгодной сделке, не обращая внимание на свою семью. Сестра Судо Масако влюблена в Мори и просит его спасти брата.©
Я взялся за этот фильм, чтобы посмотреть на раннюю работу Кэйко Киси, но в IMDB ошибка - в фильме снялась пожилая тезка известной красавицы.
> > > > > > > > >
Качество видео: DVDRip
Формат видео: AVI
Видео: 720x544 (1.32:1), 23.976 fps, XviD build 50 ~1692 kbps avg, 0.18 bit/pixel
Аудио: 48 kHz, MPEG Layer 3, 2 ch, ~128.00 kbps avg
Формат субтитров: softsub (SRT)
Доп. информация о субтитрах: дед_сто_лет
Пример субтитров
216
00:22:03,533 --> 00:22:04,936
Танцевальный вечер?
217
00:22:05,172 --> 00:22:13,787
Да, можно распространить билеты
среди студентов и заработать на этом.
218
00:22:13,800 --> 00:22:16,699
И ты можешь сделать все сам?
219
00:22:16,699 --> 00:22:20,208
Мне помогут друзья,
но нужно внести предоплату...
220
00:22:20,208 --> 00:22:24,894
... за оркестр, уборщиков,
за печать билетов и тому подобное.
221
00:22:24,900 --> 00:22:26,490
Мне никогда не собрать такую сумму...
222
00:22:26,490 --> 00:22:30,724
... даже если в результате
будет большая прибыль.
223
00:22:32,000 --> 00:22:34,037
Прошу, позволь мне помочь тебе.
224
00:22:34,037 --> 00:22:36,551
Я могу дать тебе всю необходимую сумму.
225
00:22:36,759 --> 00:22:40,408
Но я не могу обеспечить
высокий процент с кредита.
226
00:22:41,555 --> 00:22:44,477
Это неважно.
Мне будет приятно знать...
227
00:22:44,694 --> 00:22:48,135
... что ты сделал что-то с моей помощью.
228
00:22:49,696 --> 00:22:53,786
Когда ты так говоришь, мне
ещё труднее согласиться на это.
229
00:22:54,000 --> 00:22:56,000
Хватит беспокоиться о мелочах.
230
00:22:56,210 --> 00:23:00,045
Сколько денег нужно
на организацию вечеринки?
231
00:23:00,275 --> 00:23:03,222
Точно не скажу - нужно все разузнать.
232
00:23:03,617 --> 00:23:06,235
Но мой друг, который организовал
много таких вечеринок...
233
00:23:06,656 --> 00:23:10,605
... говорит, что если есть 50 тысяч
йен, то тогда успех гарантирован.
234
00:23:10,605 --> 00:23:14,002
Ты уверен, что 50 тысяч
йен достаточно?
235
00:23:24,145 --> 00:23:26,667
Мне кажется, что просить
50 тысяч, это уж слишком.
236
00:23:27,147 --> 00:23:29,898
Ты совсем не в курсе. Для многих
людей это ничтожная сумма.
237
00:23:31,431 --> 00:23:33,718
Кроме того, это деньги, которые
они получили на черном рынке.
238
00:23:33,958 --> 00:23:38,004
И все же замахиваться на 50 тысяч
за раз это довольно опасно.
239
00:23:38,554 --> 00:23:40,680
Пожалуй, мы можем дать
ей небольшую скидку.
240
00:23:41,416 --> 00:23:43,640
Ну что, устроим отличную вечеринку?
MediaInfo
General
Complete name : C:\...\Ikari_no_machi(1950).Naruse\Ikari_no_machi(1950).Naruse.avi
Format : AVI
Format/Info : Audio Video Interleave
File size : 1.34 GiB
Duration : 1h 44mn
Overall bit rate : 1 830 Kbps
Video
ID : 0
Format : MPEG-4 Visual
Format profile : Advanced Simple@L5
Format settings, BVOP : 1
Format settings, QPel : No
Format settings, GMC : No warppoints
Format settings, Matrix : Default (H.263)
Codec ID : XVID
Codec ID/Hint : XviD
Duration : 1h 44mn
Bit rate : 1 693 Kbps
Width : 720 pixels
Height : 544 pixels
Display aspect ratio : 4:3
Frame rate : 23.976 fps
Color space : YUV
Chroma subsampling : 4:2:0
Bit depth : 4 bits
Scan type : Progressive
Compression mode : Lossy
Bits/(Pixel*Frame) : 0.180
Stream size : 1.24 GiB (92%)
Writing library : XviD 1.2.1 (UTC 2008-12-04)
Audio
ID : 1
Format : MPEG Audio
Format version : Version 1
Format profile : Layer 3
Mode : Joint stereo
Mode extension : MS Stereo
Codec ID : 55
Codec ID/Hint : MP3
Duration : 1h 44mn
Bit rate mode : Constant
Bit rate : 128 Kbps
Channel(s) : 2 channels
Sampling rate : 48.0 KHz
Compression mode : Lossy
Stream size : 96.1 MiB (7%)
Alignment : Aligned on interleaves
Interleave, duration : 42 ms (1.00 video frame)
Writing library : LAME3.98.2ЄЄЄЄЄЄЄЄЄЄ
Скриншот c названием фильма Скриншоты
Скачать

Скачать торрент! Икари-но мати / Жестокий мир / Ikari no machi / The Angry Street (Микио Нарусэ / Mikio Naruse) [1950, Япония, драма, DVDRip] (Rus) (Eng) + Sub

Как скачивать? · Что такое торрент? · Рейтинг и ограничения

Сайт не распространяет и не хранит электронные версии произведений, а лишь предоставляет доступ к создаваемому пользователями каталогу ссылок на торрент-файлы, которые содержат только списки хеш-сумм

[Профиль] [ЛС]
Показать сообщения:    
Ответить на тему

Текущее время: Сегодня 20:48

Часовой пояс: GMT + 4



Вы не можете начинать темы
Вы не можете отвечать на сообщения
Вы не можете редактировать свои сообщения
Вы не можете удалять свои сообщения
Вы не можете голосовать в опросах
Вы не можете прикреплять файлы к сообщениям
Вы не можете скачивать файлы