Великий гипнотизер / The Great Hypnotist / Cui mian da shi (Лесте Чэнь / Leste Chen) [2014, Китай, драма, триллер, DVDRip] Sub rus

Ответить на тему
 
Автор Сообщение

user ®

Стаж: 13 лет

Сообщений: 15071

Пост Пост: #1 от 01-Мар-2015 11:30

[Цитировать]

Великий гипнотизер / The Great Hypnotist / Cui mian da shi
Страна: Китай
Жанр: драма, триллер
Год выпуска: 2014
Продолжительность: 01:41:29
Перевод: Субтитры
Доп.инфо о переводе: Перевод – julz_nsk
Cубтитры: русские, отключаемые, srt
Оригинальная аудиодорожка: китайский
Режиссер: Лесте Чэнь / Leste Chen
В ролях:
Сюй Чжэн / Xu Zheng в роли Сюй Жуйнина
Карен Мок / Karen Mok в роли Жэнь Сяоянь
Лу Чжун / Lu Zhong в роли профессора Фан
Ху Цзин / Hu Jing роли Эми
Описание: Сюй Жуйнин, талантливый психотерапевт, активно применяет в своей практике гипнотерапию.
Однажды к нему за помощью обращается его преподаватель из университета, которая просит помочь ей разобраться со сложной пациенткой, Жэнь Сяоянь.
Та настаивает, что видит призраков. Сюй Жуйнин соглашается заняться этим случаем.

IMDB: 7.0/10 (415 votes)
http://multi-up.com/1035738
Качество видео: DVDRip
Формат видео: AVI
Видео кодек: XviD
Аудио кодек: AC-3
Видео: 720х304, MPEG-4 Visual, 23.976 fps, ~ 1 670 kbps avg, 0.318 bit/pixel
Аудио: 48 kHz, 6 ch, ~ 384 kbps (Mandarin)
Формат субтитров: softsub (SRT)
MediaInfo
General
Complete name : H:\The Great Hypnotist\The Great Hypnotist.avi
Format : AVI
Format/Info : Audio Video Interleave
File size : 1.46 GiB
Duration : 1h 41mn
Overall bit rate : 2 063 Kbps
Writing application : VirtualDubMod 1.5.10.2 (build 2540/release)
Writing library : VirtualDubMod build 2540/release
Video #0
ID : 0
Format : MPEG-4 Visual
Format profile : AdvancedSimple@L5
Format settings, BVOP : Yes
Format settings, QPel : No
Format settings, GMC : No warppoints
Format settings, Matrix : Default (MPEG)
Codec ID : XVID
Codec ID/Hint : XviD
Duration : 1h 41mn
Bit rate : 1 670 Kbps
Width : 720 pixels
Height : 304 pixels
Display aspect ratio : 2.35:1
Frame rate : 23.976 fps
Resolution : 24 bits
Colorimetry : 4:2:0
Scan type : Progressive
Bits/(Pixel*Frame) : 0.318
Stream size : 1.18 GiB (81%)
Writing library : XviD 1.2.1 (UTC 2008-12-04)
Audio #1
ID : 1
Format : AC-3
Format/Info : Audio Coding 3
Codec ID : 2000
Duration : 1h 41mn
Bit rate mode : Constant
Bit rate : 384 Kbps
Channel(s) : 6 channels
Channel positions : Front: L C R, Surround: L R, LFE
Sampling rate : 48.0 KHz
Stream size : 279 MiB (19%)
Alignment : Aligned on interleaves
Interleave, duration : 42 ms (1.00 video frame)
Interleave, preload duration : 512 ms
Скриншот с названием фильма Скриншоты Субтитры
1
00:02:14,737 --> 00:02:26,106
ВЕЛИКИЙ ГИПНОТИЗЕР
2
00:04:24,401 --> 00:04:27,484
- Не бойся, детка.
- Что случилось?
3
00:04:27,959 --> 00:04:31,459
Какая-то женщина намерена забрать
у меня дочь. Пожалуйста, помогите!
4
00:04:33,792 --> 00:04:37,026
Успокойтесь. Здесь
вы в безопасности.
5
00:04:38,501 --> 00:04:43,626
Я только что прочитал в газете,
как бабушку с внуком
6
00:04:43,792 --> 00:04:46,151
преследовал злой человек.
7
00:04:46,226 --> 00:04:47,626
Тише...
8
00:04:47,792 --> 00:04:51,776
Но группа охранников
прогнала мужчину.
9
00:04:52,292 --> 00:04:54,467
А правда в чем?
10
00:04:55,709 --> 00:04:59,351
Мужчина оказался
отцом ребенка,
11
00:04:59,417 --> 00:05:02,926
а старушка его похитила.
12
00:05:06,501 --> 00:05:08,542
Что вы сказали?
13
00:05:09,042 --> 00:05:13,051
Откуда я могу знать, что
девочка - ваша дочь?
14
00:05:16,334 --> 00:05:19,367
Конечно, она моя дочь!
15
00:05:20,751 --> 00:05:23,734
Вот наша
совместная фотография.
16
00:05:25,084 --> 00:05:28,176
Взгляните на женщину
внимательнее.
17
00:05:37,501 --> 00:05:38,767
Что?
18
00:05:38,834 --> 00:05:41,567
Прочитайте статью.
19
00:05:46,501 --> 00:05:48,059
Вспомнили?
20
00:05:48,167 --> 00:05:49,909
Эта газета
двадцатилетней давности.
21
00:05:50,001 --> 00:05:52,009
Недобросовестная мать
угробила своего ребенка.
22
00:05:56,709 --> 00:05:59,001
Жуйжуй, идем.
23
00:06:31,167 --> 00:06:32,892
Вспомнили?
24
00:06:32,917 --> 00:06:36,001
Она - это вы
двадцать лет назад.
25
00:06:43,217 --> 00:06:45,817
Отпустите руку...
26
00:06:47,792 --> 00:06:52,667
Была совершена ошибка,
я должна ее исправить.
27
00:06:58,501 --> 00:07:00,384
Прости меня.
28
00:07:03,251 --> 00:07:07,417
Жуйжуй давно вас простила.
29
00:07:30,709 --> 00:07:35,126
Я обещаю тебе, что буду жить.
30
00:07:55,417 --> 00:07:57,084
Слушайте меня...
Скачать

Скачать торрент! Великий гипнотизер / The Great Hypnotist / Cui mian da shi (Лесте Чэнь / Leste Chen) [2014, Китай, драма, триллер, DVDRip] Sub rus

Как скачивать? · Что такое торрент? · Рейтинг и ограничения

Сайт не распространяет и не хранит электронные версии произведений, а лишь предоставляет доступ к создаваемому пользователями каталогу ссылок на торрент-файлы, которые содержат только списки хеш-сумм

[Профиль] [ЛС]
Показать сообщения:    
Ответить на тему

Текущее время: Сегодня 17:57

Часовой пояс: GMT + 4



Вы не можете начинать темы
Вы не можете отвечать на сообщения
Вы не можете редактировать свои сообщения
Вы не можете удалять свои сообщения
Вы не можете голосовать в опросах
Вы не можете прикреплять файлы к сообщениям
Вы не можете скачивать файлы