Нимури Киёширо:Меченосец полной луны / The Full Moon Swordsman / Nemuri Kyoshiro engetsu sappo (Кацуо Мори / Kazuo Mori) [1969, Япония, дзидай-гэки, самурайская драма, DVDRip] AVO (С.Кузнецов)

Ответить на тему
 
Автор Сообщение

user ®

Стаж: 13 лет

Сообщений: 15071

Пост Пост: #1 от 01-Мар-2015 01:51

[Цитировать]

Нимури Киёширо:Меченосец полной луны / The Full Moon Swordsman / Nemuri Kyoshiro engetsu sappo- -Страна: Япония
Жанр: дзидай-гэки, самурайская драма
Год выпуска: 1969
Продолжительность: 01:21:49-Перевод: Авторский (одноголосый закадровый) [С.Кузнецов]-Cубтитры: нет
Оригинальная аудиодорожка: нет
Режиссер: Кацуо Мори / Kazuo Mori
В ролях: Хироки Мацуката, Томоми Сато, Санаэ Накахара, Матико Хасэгава, Микио Нарита, Юсукэ Кавадзу...
Описание: В июле 1841 года одиннадцатый сёгун клана Токугава Иемару решил отойти от дел. Своим наследником он назначил сына Иёши. Перед официальной передачей власти, наследник отправился в путешествие по владениям, для представления главам кланов. Во время путешествия он попадает в ловушку заговорщиков, генерал-инспектора Саро Канджуро и бывшей придворной повитухи Моцуры. Иёши бросают в темницу, а его место занимает, воспитанный ими, брат-близнец Тошиджиро.
Релиз от -
Сэмпл: http://multi-up.com/1035671
Качество видео: DVDRip
Формат видео: AVI
Видео: MPEG-4 Visual at 1139 Кбит/сек; 688 x 304 (2.263) at 23.976 fps
Аудио: MPEG Audio at 128 Кбит/сек; 2 канала, 48,0 КГц
Автор -
MediaInfo
Общее
Полное имя : D:\Фильмы\Азиатские\Меченосец полной луны\The Full Moon Swordsman.1969.DVDRip.XviD.745MB. rip by [Assassin's creed].avi
Формат : AVI
Формат/Информация : Audio Video Interleave
Размер файла : 747 Мбайт
Продолжительность : 1 ч. 21 м.
Общий поток : 1276 Кбит/сек
Программа кодирования : VirtualDubMod 1.5.10.3 | www.virtualdub-fr.org || (build 2550/release)
Библиотека кодирования : VirtualDubMod build 2550/release
Видео
Идентификатор : 0
Формат : MPEG-4 Visual
Профиль формата : Advanced Simple@L5
Параметр BVOP формата : 1
Параметр QPel формата : Нет
Параметр GMC формата : Без точки перехода
Параметр матрицы формата : Default (MPEG)
Идентификатор кодека : XVID
Идентификатор кодека/Подсказка : XviD
Продолжительность : 1 ч. 21 м.
Битрейт : 1139 Кбит/сек
Ширина : 688 пикселей
Высота : 304 пикселя
Соотношение сторон : 2,25:1
Частота кадров : 23,976 кадра/сек
Цветовое пространство : YUV
Субдискретизация насыщенности : 4:2:0
Битовая глубина : 8 бит
Тип развёртки : Прогрессивная
Метод сжатия : С потерями
Бит/(Пиксели*Кадры) : 0.227
Размер потока : 667 Мбайт (89%)
Библиотека кодирования : XviD 1.2.1 (UTC 2008-12-04)
Аудио
Идентификатор : 1
Формат : MPEG Audio
Версия формата : Version 1
Профиль формата : Layer 3
Идентификатор кодека : 55
Идентификатор кодека/Подсказка : MP3
Продолжительность : 1 ч. 21 м.
Вид битрейта : Постоянный
Битрейт : 128 Кбит/сек
Каналы : 2 канала
Частота : 48,0 КГц
Метод сжатия : С потерями
Размер потока : 74,9 Мбайт (10%)
Выравнивание : Соединение по промежуткам
Продолжительность промежутка : 42 мс. (1,00 видеокадр)
Время предзагрузки промежутка : 504 мс.
Библиотека кодирования : LAME3.99r
Настройки программы : -m s -V 4 -q 2 -lowpass 17 -b 128
Скриншот c названием фильма Скриншоты
Скачать

Скачать торрент! Нимури Киёширо:Меченосец полной луны / The Full Moon Swordsman / Nemuri Kyoshiro engetsu sappo (Кацуо Мори / Kazuo Mori) [1969, Япония, дзидай-гэки, самурайская драма, DVDRip] AVO (С.Кузнецов)

Как скачивать? · Что такое торрент? · Рейтинг и ограничения

Сайт не распространяет и не хранит электронные версии произведений, а лишь предоставляет доступ к создаваемому пользователями каталогу ссылок на торрент-файлы, которые содержат только списки хеш-сумм

[Профиль] [ЛС]
Показать сообщения:    
Ответить на тему

Текущее время: Сегодня 17:44

Часовой пояс: GMT + 4



Вы не можете начинать темы
Вы не можете отвечать на сообщения
Вы не можете редактировать свои сообщения
Вы не можете удалять свои сообщения
Вы не можете голосовать в опросах
Вы не можете прикреплять файлы к сообщениям
Вы не можете скачивать файлы