Отряд фантастического назначения / Особое задание / Смертники / Fantasy Mission Force / Dragon Attack (Чу Иньпин / Chu Yin-Ping) [1982, Тайвань, Гонконг, боевик, комедия, приключения, мистика, драма, BDRip] DVO + 2xAVO

Ответить на тему
 
Автор Сообщение

user ®

Стаж: 13 лет

Сообщений: 15071

Пост Пост: #1 от 28-Фев-2015 19:42

[Цитировать]

Отряд фантастического назначения / Особое задание / Смертники / Fantasy Mission Force / Dragon Attack- -Страна: Тайвань, Гонконг
Жанр: боевик, комедия, приключения, мистика, драма
Год выпуска: 1982
Продолжительность: 01:29:36-Перевод: Профессиональный (двухголосый закадровый) [Видеофильм]
Перевод: Авторский (одноголосый закадровый) [C. Визгунов]
Перевод: Авторский (одноголосый закадровый) [Сонькин "Арена"]-Cубтитры: нет
Оригинальная аудиодорожка: нет
Режиссер: Чу Иньпин / Chu Yin-Ping
В ролях: Джеки Чан, Бриджит Лин, Юй Ван, Юех Сун, Дэвид Тао, Юнг Фэнг, Шиу Бу Лия, Фрэнки Гао, Адам Чэн, Линг Чанг...
Описание: Отряду коммандос, собранному из отпетых мошенников и авантюристов, поставлена боевая задача освободить из плена генералов союзных войск.
Демонстрируя мастерское владение рукопашным боем, отряд продвигается к поставленной цели, не зная, что выжить суждено только непревзойденному Сэми.
Релиз от -
Сэмпл: http://multi-up.com/1034989
Качество видео: BDRip (Исходник: maksnew / BDRemux 1080p)
Формат видео: AVI
Видео: MPEG-4 Visual at 772 Кбит/сек; 688 x 288 (2.389) at 23.976 fps
Аудио: MPEG Audio at 128 Кбит/сек; 2 канала, 48,0 КГц [DVO]
Аудио: MPEG Audio at 128 Кбит/сек; 2 канала, 48,0 КГц [AVO]
Аудио: MPEG Audio at 128 Кбит/сек; 2 канала, 48,0 КГц [AVO]
Автор -
MediaInfo
Общее
Полное имя : D:\Фильмы\Азиатские\Отряд фантастического назначения\Fantasy Mission Force.1982.BDRip.XviD.745MB. rip by [Assassin's Creed].avi
Формат : AVI
Формат/Информация : Audio Video Interleave
Размер файла : 753 Мбайт
Продолжительность : 1 ч. 29 м.
Общий поток : 1175 Кбит/сек
Программа кодирования : VirtualDubMod 1.5.10.3 | www.virtualdub-fr.org || (build 2550/release)
Библиотека кодирования : VirtualDubMod build 2550/release
Видео
Идентификатор : 0
Формат : MPEG-4 Visual
Профиль формата : Advanced Simple@L5
Параметр BVOP формата : 1
Параметр QPel формата : Нет
Параметр GMC формата : Без точки перехода
Параметр матрицы формата : Default (MPEG)
Идентификатор кодека : XVID
Идентификатор кодека/Подсказка : XviD
Продолжительность : 1 ч. 29 м.
Битрейт : 772 Кбит/сек
Ширина : 688 пикселей
Высота : 288 пикселей
Соотношение сторон : 2,40:1
Частота кадров : 23,976 кадра/сек
Цветовое пространство : YUV
Субдискретизация насыщенности : 4:2:0
Битовая глубина : 8 бит
Тип развёртки : Прогрессивная
Метод сжатия : С потерями
Бит/(Пиксели*Кадры) : 0.163
Размер потока : 495 Мбайт (66%)
Библиотека кодирования : XviD 1.2.1 (UTC 2008-12-04)
Аудио #1
Идентификатор : 1
Формат : MPEG Audio
Версия формата : Version 1
Профиль формата : Layer 3
Идентификатор кодека : 55
Идентификатор кодека/Подсказка : MP3
Продолжительность : 1 ч. 29 м.
Вид битрейта : Постоянный
Битрейт : 128 Кбит/сек
Каналы : 2 канала
Частота : 48,0 КГц
Метод сжатия : С потерями
Размер потока : 82,0 Мбайт (11%)
Выравнивание : Соединение по промежуткам
Продолжительность промежутка : 42 мс. (1,00 видеокадр)
Время предзагрузки промежутка : 504 мс.
Библиотека кодирования : LAME3.99r
Настройки программы : -m s -V 4 -q 2 -lowpass 17 -b 128
Аудио #2
Идентификатор : 2
Формат : MPEG Audio
Версия формата : Version 1
Профиль формата : Layer 3
Идентификатор кодека : 55
Идентификатор кодека/Подсказка : MP3
Продолжительность : 1 ч. 29 м.
Вид битрейта : Постоянный
Битрейт : 128 Кбит/сек
Каналы : 2 канала
Частота : 48,0 КГц
Метод сжатия : С потерями
Размер потока : 82,0 Мбайт (11%)
Выравнивание : Соединение по промежуткам
Продолжительность промежутка : 42 мс. (1,00 видеокадр)
Время предзагрузки промежутка : 504 мс.
Библиотека кодирования : LAME3.99r
Настройки программы : -m s -V 4 -q 2 -lowpass 17 -b 128
Аудио #3
Идентификатор : 3
Формат : MPEG Audio
Версия формата : Version 1
Профиль формата : Layer 3
Идентификатор кодека : 55
Идентификатор кодека/Подсказка : MP3
Продолжительность : 1 ч. 29 м.
Вид битрейта : Постоянный
Битрейт : 128 Кбит/сек
Каналы : 2 канала
Частота : 48,0 КГц
Метод сжатия : С потерями
Размер потока : 82,0 Мбайт (11%)
Выравнивание : Соединение по промежуткам
Продолжительность промежутка : 42 мс. (1,00 видеокадр)
Время предзагрузки промежутка : 504 мс.
Библиотека кодирования : LAME3.99r
Настройки программы : -m s -V 4 -q 2 -lowpass 17 -b 128
Скриншот c названием фильма Скриншоты
Скачать

Скачать торрент! Отряд фантастического назначения / Особое задание / Смертники / Fantasy Mission Force / Dragon Attack (Чу Иньпин / Chu Yin-Ping) [1982, Тайвань, Гонконг, боевик, комедия, приключения, мистика, драма, BDRip] DVO + 2xAVO

Как скачивать? · Что такое торрент? · Рейтинг и ограничения

Сайт не распространяет и не хранит электронные версии произведений, а лишь предоставляет доступ к создаваемому пользователями каталогу ссылок на торрент-файлы, которые содержат только списки хеш-сумм

[Профиль] [ЛС]
Показать сообщения:    
Ответить на тему

Текущее время: Сегодня 12:31

Часовой пояс: GMT + 4



Вы не можете начинать темы
Вы не можете отвечать на сообщения
Вы не можете редактировать свои сообщения
Вы не можете удалять свои сообщения
Вы не можете голосовать в опросах
Вы не можете прикреплять файлы к сообщениям
Вы не можете скачивать файлы