Таймлесс 2: Сапфировая книга / Saphirblau (Феликс Фуксштайнер / Felix Fuchssteiner, Катарина Шёде / Katharina Schde) [2014, Германия, фэнтези, BDRip 720p] MVO + Sub Ger + Original Ger

Ответить на тему
 
Автор Сообщение

user ®

Стаж: 7 лет 7 месяцев

Сообщений: 20008

Пост Пост: #1 от 27-Фев-2015 17:42

[Цитировать]

Таймлесс 2: Сапфировая книга / Saphirblau
Страна: Германия
Студия: ARRI Film & TV Services
Жанр: фэнтези
Год выпуска: 2014
Продолжительность: 01:56:06
Перевод: Профессиональный (многоголосый закадровый)
Cубтитры: немецкие
Оригинальная аудиодорожка: немецкий
Режиссер: Феликс Фуксштайнер / Felix Fuchssteiner, Катарина Шёде / Katharina Schde
В ролях: Мария Эрих, Яннис Нивёнер, Петер Симонишек, Йозефина Пройсс, Флориан Бартоломай, Руфус Бек, Лаура Берлин, Сандра Боргманн, Юстина дель Корте, Вероника Феррес
Описание: Приключения юной Гвендолин Шеферд продолжаются. Она начинает все больше узнавать о тайнах мира путешественников во времени. Ей предстоит разгадать больше загадок и научиться быть светской леди для приемов в 18 веке. Гвендолин узнает больше о своей семье, в первую очередь о ее дедушке Лукасе. Также Гвен подозревает, что Гидеон скрывает что-то от нее, возможно какую-то сокровенную страшную тайну… Но с появлением нового, слегка надоедливого друга Ксемериуса, девушке становится легче преодолевать все препятствия на пути.
Доп. информация: За предоставленный Blu-Ray диск благодарность 'L.

Тип релиза: BDRip 720p
Контейнер: MKV
Видео: MPEG-4 AVC, 4703 Кбит/с, 1280x544, 23,976 fps
Аудио: Rus, AC3, 448 kb/s (6 ch), 48 kHz
Аудио 2: Eng, DTS, 1510 kb/s (6 ch), 48 kHz
Формат субтитров: softsub (SRT)
MediaInfo
264 [info]: frame I:1846 Avg QP:13.55 size:101993
x264 [info]: frame P:38236 Avg QP:15.02 size: 47431
x264 [info]: frame B:127105 Avg QP:16.87 size: 17376
Format : Matroska
Format version : Version 4 / Version 2
File size : 5.51 GiB
Duration : 1h 56mn
Overall bit rate : 6 795 Kbps
Movie name : Таймлесс 2_Сапфировая книга. (Tonik)
Encoded date : UTC 2015-02-26 01:46:51
Writing application : mkvmerge v7.1.0 ('Good Love') 64bit built on Jul 27 2014 13:06:55
Writing library : libebml v1.3.0 + libmatroska v1.4.1
_STATISTICS_WRITING_APP : mkvmerge v7.1.0 ('Good Love') 64bit built on Jul 27 2014 13:06:55
_STATISTICS_WRITING_DATE_UTC : 2015-02-26 01:46:51
_STATISTICS_TAGS : BPS DURATION NUMBER_OF_FRAMES NUMBER_OF_BYTES
DURATION : 01:54:50.667000000
NUMBER_OF_FRAMES : 1725
NUMBER_OF_BYTES : 65042
Video
ID : 1
Format : AVC
Format/Info : Advanced Video Codec
Format profile : High@L4.1
Format settings, CABAC : Yes
Format settings, ReFrames : 12 frames
Codec ID : V_MPEG4/ISO/AVC
Duration : 1h 56mn
Bit rate : 4 703 Kbps
Width : 1 280 pixels
Height : 544 pixels
Display aspect ratio : 2.35:1
Frame rate mode : Constant
Frame rate : 24.000 fps
Color space : YUV
Chroma subsampling : 4:2:0
Bit depth : 8 bits
Scan type : Progressive
Bits/(Pixel*Frame) : 0.281
Stream size : 3.81 GiB (69%)
Title : Tonik
Writing library : x264 core 144 r2525 40bb568
Encoding settings : cabac=1 / ref=12 / deblock=1:-3:-3 / analyse=0x3:0x133 / me=umh / subme=11 / psy=1 / psy_rd=1.00:0.00 / mixed_ref=1 / me_range=32 / chroma_me=1 / trellis=2 / 8x8dct=1 / cqm=0 / deadzone=21,11 / fast_pskip=0 / chroma_qp_offset=-2 / threads=12 / lookahead_threads=3 / sliced_threads=0 / nr=0 / decimate=1 / interlaced=0 / bluray_compat=0 / constrained_intra=0 / bframes=11 / b_pyramid=2 / b_adapt=2 / b_bias=0 / direct=1 / weightb=1 / open_gop=0 / weightp=2 / keyint=250 / keyint_min=24 / scenecut=40 / intra_refresh=0 / rc=crf / mbtree=0 / crf=15.8 / qcomp=0.60 / qpmin=0 / qpmax=69 / qpstep=4 / ip_ratio=1.40 / pb_ratio=1.30 / aq=1:1.00
Language : German
Default : Yes
Forced : No
_STATISTICS_WRITING_APP : mkvmerge v7.1.0 ('Good Love') 64bit built on Jul 27 2014 13:06:55
_STATISTICS_WRITING_DATE_UTC : 2015-02-26 01:46:51
_STATISTICS_TAGS : BPS DURATION NUMBER_OF_FRAMES NUMBER_OF_BYTES
DURATION : 01:56:06.125000000
NUMBER_OF_FRAMES : 167187
NUMBER_OF_BYTES : 4210395059
Audio #1
ID : 2
Format : AC-3
Format/Info : Audio Coding 3
Mode extension : CM (complete main)
Format settings, Endianness : Big
Codec ID : A_AC3
Duration : 1h 56mn
Bit rate mode : Constant
Bit rate : 448 Kbps
Channel(s) : 6 channels
Channel positions : Front: L C R, Side: L R, LFE
Sampling rate : 48.0 KHz
Bit depth : 16 bits
Compression mode : Lossy
Stream size : 372 MiB (7%)
Language : Russian
Default : Yes
Forced : No
Audio #2
ID : 3
Format : DTS
Format/Info : Digital Theater Systems
Mode : 16
Format settings, Endianness : Big
Codec ID : A_DTS
Duration : 1h 56mn
Bit rate mode : Constant
Bit rate : 1 509 Kbps
Channel(s) : 6 channels
Channel positions : Front: L C R, Side: L R, LFE
Sampling rate : 48.0 KHz
Bit depth : 16 bits
Compression mode : Lossy
Stream size : 1.22 GiB (22%)
Language : German
Default : No
Forced : No
Text
ID : 4
Format : UTF-8
Codec ID : S_TEXT/UTF8
Codec ID/Info : UTF-8 Plain Text
Language : German
Default : No
Forced : No
Скриншоты
Скачать

Скачать торрент!

Как скачивать? · Что такое торрент? · Рейтинг и ограничения

Сайт не распространяет и не хранит электронные версии произведений, а лишь предоставляет доступ к создаваемому пользователями каталогу ссылок на торрент-файлы, которые содержат только списки хеш-сумм

[Профиль] [ЛС]
Показать сообщения:    
Ответить на тему

Текущее время: Сегодня 16:32

Часовой пояс: GMT + 4



Вы не можете начинать темы
Вы не можете отвечать на сообщения
Вы не можете редактировать свои сообщения
Вы не можете удалять свои сообщения
Вы не можете голосовать в опросах
Вы не можете прикреплять файлы к сообщениям
Вы не можете скачивать файлы