Форсаж 5 / Fast Five (Джастин Лин / Justin Lin) [2011, США, боевик, криминал, триллер, HDTV 1080i] Dub

Ответить на тему
 
Автор Сообщение

user ®

Стаж: 7 лет 7 месяцев

Сообщений: 20008

Пост Пост: #1 от 26-Фев-2015 18:48

[Цитировать]

Форсаж 5 / Fast Five
Страна: США
Жанр: боевик, криминал, триллер
Год выпуска: 2011
Продолжительность: 01:59:23
Перевод: Профессиональный (дублированный)
Cубтитры: нет
Оригинальная аудиодорожка: нет
Режиссер: Джастин Лин / Justin Lin
В ролях: Вин Дизель, Пол Уокер, Мэтт Шульце, Тайриз Гибсон, Лудакрис, Дуэйн Джонсон, Дон Омар, Джордана Брюстер, Эльза Патаки, Галь Гадот, Тего Калдерон.
Описание: Освободив Доминика из-под стражи, Брайан и Миа Торетто были вынуждены пересечь несколько границ, чтобы укрыться от властей. Загнанным в угол с Рио-де-Жанейро, им предстоит выполнить последнюю работу во имя собственной свободы. Собирая команду самых лучших гонщиков, они понимают, что противостоять им предстоит коррумпированному дельцу, желающему их смерти. Но он не единственный, кто идет по следу героев. Крутой федеральный агент Люк Хоббс всегда выходит победителем — а в этот раз заданием его отряда стала поимка Дома и Брайана.
Доп. информация: HDTV имеет иное наполнение кадра, чем BD http://screenshotcomparison.com/comparison/113475
Сэмпл: http://multi-up.com/1035079
Тип релиза: HDTV 1080i
Контейнер: TS
Видео: AVC, 1920x1080 (16/9), 25.000 fps, 13.8 Mbps (0.267 bit/pixel)
Аудио: MP2, 48.0 KHz, 2 ch, 192 Kbps, CBR (Russian)
MediaInfo
Общее
Идентификатор : 3 (0x3)
Полное имя : K:\Форсаж 5.ts
Формат : MPEG-TS
Размер файла : 12,6 Гбайт
Продолжительность : 1 ч. 59 м.
Режим общего битрейта : Переменный
Общий поток : 15,1 Мбит/сек
Видео
Идентификатор : 2141 (0x85D)
Идентификатор меню : 21004 (0x520C)
Формат : AVC
Формат/Информация : Advanced Video Codec
Профиль формата : Main@L4.0
Параметр CABAC формата : Да
Параметр ReFrames формата : 3 кадра
Идентификатор кодека : 27
Продолжительность : 1 ч. 59 м.
Битрейт : 14,1 Мбит/сек
Ширина : 1920 пикселей
Высота : 1080 пикселей
Соотношение сторон : 16:9
Частота кадров : 25,000 кадров/сек
Стандарт вещания : Component
Цветовое пространство : YUV
Субдискретизация насыщенности : 4:2:0
Битовая глубина : 8 бит
Тип развёртки : Чересстрочная
Порядок развёртки : Верхнее поле первое
Бит/(Пиксели*Кадры) : 0.273
Размер потока : 11,8 Гбайт (94%)
Основные цвета : BT.709
Характеристики трансфера : BT.709
Коэффициенты матрицы : BT.709
Аудио
Идентификатор : 2142 (0x85E)
Идентификатор меню : 21004 (0x520C)
Формат : MPEG Audio
Версия формата : Version 1
Профиль формата : Layer 2
Идентификатор кодека : 4
Продолжительность : 1 ч. 59 м.
Вид битрейта : Постоянный
Битрейт : 192 Кбит/сек
Каналы : 2 канала
Частота : 48,0 КГц
Метод сжатия : С потерями
Задержка видео : -4 мс.
Размер потока : 164 Мбайт (1%)
Язык : Russian
Скриншоты
Скачать

Скачать торрент!

Как скачивать? · Что такое торрент? · Рейтинг и ограничения

Сайт не распространяет и не хранит электронные версии произведений, а лишь предоставляет доступ к создаваемому пользователями каталогу ссылок на торрент-файлы, которые содержат только списки хеш-сумм

[Профиль] [ЛС]
Показать сообщения:    
Ответить на тему

Текущее время: Сегодня 06:24

Часовой пояс: GMT + 4



Вы не можете начинать темы
Вы не можете отвечать на сообщения
Вы не можете редактировать свои сообщения
Вы не можете удалять свои сообщения
Вы не можете голосовать в опросах
Вы не можете прикреплять файлы к сообщениям
Вы не можете скачивать файлы