Царь скорпионов 4: Утерянный трон / The Scorpion King: The Lost Throne (Майк Эллиот / Mike Elliott) [2015, США, Приключения, боевик, BDRip 720p] Dub + Sub Rus, Eng + Original Eng

Ответить на тему
 
Автор Сообщение

user ®

Стаж: 7 лет 7 месяцев

Сообщений: 20008

Пост Пост: #1 от 26-Фев-2015 18:48

[Цитировать]

Царь скорпионов 4: Утерянный трон / The Scorpion King: The Lost Throne
Страна: США
Студия: Universal 1440 Entertainment
Жанр: Приключения, боевик
Год выпуска: 2015
Продолжительность: 01:44:51
Перевод: Профессиональный (дублированный)
Cубтитры: Rus, Eng
Оригинальная аудиодорожка: английский
Режиссер: Майк Эллиот / Mike Elliott
В ролях: Ройс Грейси, Эсме Бьянко, Майкл Бин, Бэрри Боствик, Стивен Данливи, Грант Эллиотт, Лу Ферриньо, Ли Гилл, Роджер Халстон, Брэндон Хардест
Описание: В очередной киноленте о «Царе скорпионов» мы увидим как отстранённый от своего трона король-воин Метайюс принимает решение отправиться на самое страшное и ужасное задание своей жизни. Все это Метайюс решает сделать ради того, чтобы на его земле снова воцарился мир. Все вроде бы шло своим чередом, но однажды от Метайюса отворачивается его самый близкий и лучший друг, такого он никак не мог предвидеть. Теперь герой самолично должен противостоять страшному злодею, который готов на все только бы убить его. Сможет ли Метайюс, приложив все свои силы, противостоять своему противнику?! И добьётся ли наш герой того, ради чего он отважился на эту битву, наступит ли умиротворение на его земле?!

Тип релиза: BDRip 720p
Контейнер: MKV
Видео: MPEG-4 AVC, 7492 Кбит/с, 1280x720, 23,976 fps
Аудио: Rus, DTS, 768 kb/s (6 ch), 48 kHz
Аудио 2: Eng, DTS, 1510 kb/s (6 ch), 48 kHz
Аудио 3: Rus, AC3, 192 kb/s (2 ch), 48 kHz - Commentary with Mike Elliott & Cast
Формат субтитров: softsub (SRT)
MediaInfo
Format : Matroska
Format version : Version 4 / Version 2
File size : 7.44 GiB
Duration : 1h 44mn
Overall bit rate : 10.2 Mbps
Movie name : Царь скорпионов 4. (Tonik)
Encoded date : UTC 2015-02-25 14:36:23
Writing application : mkvmerge v7.1.0 ('Good Love') 64bit built on Jul 27 2014 13:06:55
Writing library : libebml v1.3.0 + libmatroska v1.4.1
DURATION : 01:43:59.316000000
NUMBER_OF_FRAMES : 1189
NUMBER_OF_BYTES : 59068
_STATISTICS_WRITING_APP : mkvmerge v7.1.0 ('Good Love') 64bit built on Jul 27 2014 13:06:55
_STATISTICS_WRITING_DATE_UTC : 2015-02-25 14:36:23
_STATISTICS_TAGS : BPS DURATION NUMBER_OF_FRAMES NUMBER_OF_BYTES
Video
ID : 1
Format : AVC
Format/Info : Advanced Video Codec
Format profile : High@L4.1
Format settings, CABAC : Yes
Format settings, ReFrames : 9 frames
Codec ID : V_MPEG4/ISO/AVC
Duration : 1h 44mn
Bit rate : 7 492 Kbps
Width : 1 280 pixels
Height : 720 pixels
Display aspect ratio : 16:9
Frame rate mode : Constant
Frame rate : 23.976 fps
Color space : YUV
Chroma subsampling : 4:2:0
Bit depth : 8 bits
Scan type : Progressive
Bits/(Pixel*Frame) : 0.339
Stream size : 5.49 GiB (74%)
Writing library : x264 core 144 r2525kMod 40bb568
Encoding settings : cabac=1 / ref=9 / deblock=1:-3:-3 / analyse=0x3:0x133 / me=umh / subme=10 / psy=1 / fade_compensate=0.00 / psy_rd=0.95:0.00 / mixed_ref=1 / me_range=32 / chroma_me=1 / trellis=2 / 8x8dct=1 / cqm=0 / deadzone=21,11 / fast_pskip=0 / chroma_qp_offset=-2 / threads=12 / lookahead_threads=2 / sliced_threads=0 / nr=0 / decimate=0 / interlaced=0 / bluray_compat=0 / constrained_intra=0 / fgo=0 / bframes=7 / b_pyramid=2 / b_adapt=2 / b_bias=0 / direct=3 / weightb=1 / open_gop=0 / weightp=2 / keyint=250 / keyint_min=23 / scenecut=40 / intra_refresh=0 / rc_lookahead=60 / rc=crf / mbtree=0 / crf=16.0000 / qcomp=0.60 / qpmin=0 / qpmax=69 / qpstep=4 / vbv_maxrate=62500 / vbv_bufsize=78125 / crf_max=0.0 / nal_hrd=none / filler=0 / ip_ratio=1.30 / pb_ratio=1.20 / aq=1:0.80
Language : English
Default : Yes
Forced : No
Color primaries : BT.709
Transfer characteristics : BT.709
Matrix coefficients : BT.709
DURATION : 01:44:51.244000000
NUMBER_OF_FRAMES : 150839
NUMBER_OF_BYTES : 6048008541
_STATISTICS_WRITING_APP : mkvmerge v7.1.0 ('Good Love') 64bit built on Jul 27 2014 13:06:55
_STATISTICS_WRITING_DATE_UTC : 2015-02-25 14:36:23
_STATISTICS_TAGS : BPS DURATION NUMBER_OF_FRAMES NUMBER_OF_BYTES
Audio #1
ID : 2
Format : DTS
Format/Info : Digital Theater Systems
Mode : 16
Format settings, Endianness : Big
Codec ID : A_DTS
Duration : 1h 44mn
Bit rate mode : Constant
Bit rate : 768 Kbps
Channel(s) : 6 channels
Channel positions : Front: L C R, Side: L R, LFE
Sampling rate : 48.0 KHz
Bit depth : 24 bits
Compression mode : Lossy
Stream size : 576 MiB (8%)
Language : Russian
Default : Yes
Forced : No
Audio #2
ID : 3
Format : DTS
Format/Info : Digital Theater Systems
Mode : 16
Format settings, Endianness : Big
Codec ID : A_DTS
Duration : 1h 44mn
Bit rate mode : Constant
Bit rate : 1 509 Kbps
Channel(s) : 6 channels
Channel positions : Front: L C R, Side: L R, LFE
Sampling rate : 48.0 KHz
Bit depth : 24 bits
Compression mode : Lossy
Stream size : 1.11 GiB (15%)
Language : English
Default : No
Forced : No
Audio #3
ID : 4
Format : AC-3
Format/Info : Audio Coding 3
Format profile : Dolby Digital
Mode extension : CM (complete main)
Format settings, Endianness : Big
Codec ID : A_AC3
Duration : 1h 44mn
Bit rate mode : Constant
Bit rate : 192 Kbps
Channel(s) : 2 channels
Channel positions : Front: L R
Sampling rate : 48.0 KHz
Bit depth : 16 bits
Compression mode : Lossy
Stream size : 144 MiB (2%)
Title : Commentary with Mike Elliott & Cast
Language : English
Default : No
Forced : No
Text #1
ID : 5
Format : UTF-8
Codec ID : S_TEXT/UTF8
Codec ID/Info : UTF-8 Plain Text
Language : Russian
Default : No
Forced : No
Text #2
ID : 6
Format : UTF-8
Codec ID : S_TEXT/UTF8
Codec ID/Info : UTF-8 Plain Text
Title : Full
Language : English
Default : No
Forced : No
Text #3
ID : 7
Format : UTF-8
Codec ID : S_TEXT/UTF8
Codec ID/Info : UTF-8 Plain Text
Title : SDH
Language : English
Default : No
Forced : No
Menu
00:00:00.000 : en:00:00:00.000
00:07:39.000 : en:00:07:39.000
00:10:13.154 : en:00:10:13.154
00:13:22.218 : en:00:13:22.218
00:21:03.888 : en:00:21:03.888
00:26:13.238 : en:00:26:13.238
00:29:55.585 : en:00:29:55.585
00:34:36.157 : en:00:34:36.157
00:40:55.244 : en:00:40:55.244
00:45:06.495 : en:00:45:06.495
00:52:01.994 : en:00:52:01.994
00:58:16.243 : en:00:58:16.243
01:05:12.992 : en:01:05:12.992
01:09:17.236 : en:01:09:17.236
01:14:57.535 : en:01:14:57.535
01:19:55.708 : en:01:19:55.708
01:25:27.289 : en:01:25:27.289
01:30:08.528 : en:01:30:08.528
01:35:47.575 : en:01:35:47.575
01:39:42.018 : en:01:39:42.018
Скриншоты
Скачать

Скачать торрент!

Как скачивать? · Что такое торрент? · Рейтинг и ограничения

Сайт не распространяет и не хранит электронные версии произведений, а лишь предоставляет доступ к создаваемому пользователями каталогу ссылок на торрент-файлы, которые содержат только списки хеш-сумм

[Профиль] [ЛС]
Показать сообщения:    
Ответить на тему

Текущее время: Сегодня 02:14

Часовой пояс: GMT + 4



Вы не можете начинать темы
Вы не можете отвечать на сообщения
Вы не можете редактировать свои сообщения
Вы не можете удалять свои сообщения
Вы не можете голосовать в опросах
Вы не можете прикреплять файлы к сообщениям
Вы не можете скачивать файлы