Первоклассница (Илья Фрэз) [1948, Детский, драма, комедия, приключения, семейный, DVDRip]

Ответить на тему
 
Автор Сообщение

user ®

Стаж: 7 лет 7 месяцев

Сообщений: 20008

Пост Пост: #1 от 26-Фев-2015 18:48

[Цитировать]

Первоклассница
Жанр: Детский, драма, комедия, приключения, семейный
Год выпуска: 1948
Продолжительность: 01:07:31
Режиссёр: Илья Фрэз

В ролях: Тамара Макарова, Кира Головко, Татьяна Барышева, Наталья Защипина, Мила Костыкова, Елена Таранова, Тамара Вихман, Игорь Ерошкин, Алёна Егорова, Мария Жвирблис, Валентина Кибардина, Степан Каюков, Владимир Уральский, Георгий Милляр, Елена Максимова, Ростислав Плятт
Описание: Маруся Орлова стала первоклассницей, для неё началась интересная, полная событий и переживаний жизнь. Из самолюбивой и капризной девочки под воздействием учительницы и под влиянием своих новых подружек она превращается в дисциплинированную, общительную и отзывчивую ученицу.
Доп. информация: Релиз: , pmv
Исходный материал - DVD5, благодарность за него принадлежит OGORODNIKOFFF !
Сэмпл: https://yadi.sk/i/7JIOOk4AeuGGe
Сравнение:
С раздачей: [url=http://***/forum/viewtopic.php?t=4667434]http://***/forum/viewtopic.php?t=4667434[/url]
http://screenshotcomparison.com/comparison/113576
Качество видео: DVDRip
Формат видео: AVI
Видео: 704x544 (1.29:1), 25 fps, XviD build 73 ~2169 kbps avg, 0.23 bit/pixel
Аудио: 48 kHz, MPEG Layer 3, 2 ch, ~128.00 kbps avg
MediaInfo
Format : AVI
Format/Info : Audio Video Interleave
File size : 1.09 GiB
Duration : 1h 7mn
Overall bit rate : 2 308 Kbps
Writing library : VirtualDub build 35576/release
Video
ID : 0
Format : MPEG-4 Visual
Format profile : Advanced Simple@L5
Format settings, BVOP : 2
Format settings, QPel : No
Format settings, GMC : No warppoints
Format settings, Matrix : Default (H.263)
Codec ID : XVID
Codec ID/Hint : XviD
Duration : 1h 7mn
Bit rate : 2 170 Kbps
Width : 704 pixels
Height : 544 pixels
Display aspect ratio : 1.294
Frame rate : 25.000 fps
Color space : YUV
Chroma subsampling : 4:2:0
Bit depth : 8 bits
Scan type : Progressive
Compression mode : Lossy
Bits/(Pixel*Frame) : 0.227
Stream size : 1.02 GiB (94%)
Writing library : XviD 73
Audio
ID : 1
Format : MPEG Audio
Format version : Version 1
Format profile : Layer 3
Mode : Joint stereo
Codec ID : 55
Codec ID/Hint : MP3
Duration : 1h 7mn
Bit rate mode : Constant
Bit rate : 128 Kbps
Channel(s) : 2 channels
Sampling rate : 48.0 KHz
Compression mode : Lossy
Stream size : 61.8 MiB (6%)
Alignment : Split accross interleaves
Interleave, duration : 40 ms (1.00 video frame)
Interleave, preload duration : 500 ms
Скриншот c названием фильма Скриншоты
Скачать

Скачать торрент!

Как скачивать? · Что такое торрент? · Рейтинг и ограничения

Сайт не распространяет и не хранит электронные версии произведений, а лишь предоставляет доступ к создаваемому пользователями каталогу ссылок на торрент-файлы, которые содержат только списки хеш-сумм

[Профиль] [ЛС]
Показать сообщения:    
Ответить на тему

Текущее время: Сегодня 02:21

Часовой пояс: GMT + 4



Вы не можете начинать темы
Вы не можете отвечать на сообщения
Вы не можете редактировать свои сообщения
Вы не можете удалять свои сообщения
Вы не можете голосовать в опросах
Вы не можете прикреплять файлы к сообщениям
Вы не можете скачивать файлы