Пик Данте / Dante\'s Peak (Роджер Дональдсон / Roger Donaldson) [1997, США, боевик, триллер, приключения, BDRip 1080p] MVO (ОРТ) + 3x DVO (BD EUR, FDV, Universal Channel) + AVO (Живов) + Ukr + Original Eng + Sub Rus, Eng

Ответить на тему
 
Автор Сообщение

user ®

Стаж: 7 лет 7 месяцев

Сообщений: 20008

Пост Пост: #1 от 26-Фев-2015 15:36

[Цитировать]

Пик Данте / Dante's Peak- Год выпуска: 1997
Выпущено: США
Жанр: боевик, триллер, приключения
Продолжительность: 01:48:28
Перевод: Профессиональный (двухголосый, закадровый) Blu-ray EUR
+ Профессиональный (двухголосый, закадровый) FDV
+ Профессиональный (многоголосый, закадровый) ОРТ
+ Профессиональный (двухголосый, закадровый) Universal Channel
+ Авторский (одноголосый, закадровый) Ю.Живов
Оригинальная звуковая дорожка: English
Субтитры: Russian, English-Режиссер: Роджер Дональдсон / Roger Donaldson
В ролях: Пирс Броснан, Линда Хэмилтон, Джейми Рене Смит, Джереми Фоули, Элизабет Хоффман, Чарльз Хэллахан, Грант Хеслов, Кирк Тратнер, Арабелла Филд, Ци Ма
О фильме: Ученый-вулканолог Гарри Далтон, потерявший жену во время извержения вулкана, отправляется на Пик Данте, в маленький городок, расположенный на северо-западном побережье, для того, чтобы заняться там рутинной работой - исследованием сейсмической ситуации.
Ученый немедленно обнаруживает тревожные признаки надвигающейся катастрофы, грозящей обернуться концом света. Правительство не обращает внимания на его грозные предупреждения, и лишь мэр городка Пик Данте Рэчел Уэндо, с которой у него завязался роман, осознает весь ужас положения и спешит к нему на помощь.-SbR!
Релиз:
Формат: MKV
Видео: 1920x814 at 23.976 fps, x264@L4.1, 2pass, ~14000 kbps avg
Аудио #01: Russian: 48 kHz, DTS, 2/0 (L,R) ch, ~768 kbps avg |Многоголосый закадровый, Blu-ray EUR|
Аудио #02: Russian: 48 kHz, AC3, 3/2 (L,C,R,l,r) + LFE ch, ~384 kbps avg |Двухголосый закадровый, FDV|
Аудио #03: Russian: 48 kHz, AC3, 2/0 (L,R) ch, ~192 kbps avg |Многоголосый закадровый, ОРТ|
Аудио #04: Russian: 48 kHz, AC3, 2/0 (L,R) ch, ~192 kbps avg |Двухголосый закадровый, Universal Channel|
Аудио #05: Russian: 48 kHz, DTS, 3/2 (L,C,R,l,r) + LFE ch, ~1510 kbps avg |Одноголосый закадровый, Ю. Живов|
Аудио #06: Ukrainian: 48 kHz, AC3, 3/2 (L,C,R,l,r) + LFE ch, ~384 kbps avg |Многоголосый закадровый|
Аудио #07: English: 48 kHz, DTS, 3/2 (L,C,R,l,r) + LFE ch, ~1509 kbps avg
Семпл-Source vs Encode
-
mInfo
Формат : Matroska
Версия формата : Version 4 / Version 2
Размер файла : 14,3 Гбайт
Продолжительность : 1 ч. 48 м.
Общий поток : 18,9 Мбит/сек
Название фильма : Dante's Peak (1997) - Release for HDCLUB by SbR
Дата кодирования : UTC 2015-02-08 08:25:30
Программа кодирования : mkvmerge v7.5.0 ('Glass Culture') 64bit built on Jan 4 2015 16:48:44
Библиотека кодирования : libebml v1.3.1 + libmatroska v1.4.2
Attachment : Yes / Yes
Видео
Идентификатор : 1
Формат : AVC
Формат/Информация : Advanced Video Codec
Профиль формата : High@L4.1
Параметр CABAC формата : Да
Параметр ReFrames формата : 5 кадров
Идентификатор кодека : V_MPEG4/ISO/AVC
Продолжительность : 1 ч. 48 м.
Битрейт : 14,0 Мбит/сек
Ширина : 1920 пикселей
Высота : 814 пикселей
Соотношение сторон : 2,35:1
Режим частоты кадров : Постоянный
Частота кадров : 23,976 кадра/сек
Цветовое пространство : YUV
Субдискретизация насыщенности : 4:2:0
Битовая глубина : 8 бит
Тип развёртки : Прогрессивная
Бит/(Пиксели*Кадры) : 0.374
Размер потока : 10,3 Гбайт (72%)
Заголовок : Release for HDCLUB
Библиотека кодирования : x264 core 144 r2525kMod 40bb568
Настройки программы : cabac=1 / ref=5 / deblock=1:-3:-3 / analyse=0x3:0x133 / me=umh / subme=11 / psy=1 / fade_compensate=0.00 / psy_rd=1.10:0.00 / mixed_ref=1 / me_range=32 / chroma_me=1 / trellis=2 / 8x8dct=1 / cqm=0 / deadzone=21,11 / fast_pskip=0 / chroma_qp_offset=-2 / threads=12 / lookahead_threads=2 / sliced_threads=0 / nr=0 / decimate=1 / interlaced=0 / bluray_compat=0 / constrained_intra=0 / fgo=0 / bframes=8 / b_pyramid=2 / b_adapt=2 / b_bias=0 / direct=3 / weightb=1 / open_gop=0 / weightp=2 / keyint=250 / keyint_min=23 / scenecut=40 / intra_refresh=0 / rc_lookahead=60 / rc=2pass / mbtree=0 / bitrate=14000 / ratetol=1.0 / qcomp=0.65 / qpmin=0 / qpmax=69 / qpstep=4 / cplxblur=20.0 / qblur=0.5 / vbv_maxrate=62500 / vbv_bufsize=78125 / nal_hrd=none / filler=0 / ip_ratio=1.40 / pb_ratio=1.30 / aq=1:0.70
Язык : English
Default : Да
Forced : Нет
Основные цвета : BT.709
Характеристики трансфера : BT.709
Коэффициенты матрицы : BT.709
Аудио #1
Идентификатор : 2
Формат : DTS
Формат/Информация : Digital Theater Systems
Режим : 16
Параметр Endianness формата : Big
Идентификатор кодека : A_DTS
Продолжительность : 1 ч. 48 м.
Вид битрейта : Постоянный
Битрейт : 768 Кбит/сек
Каналы : 2 канала
Расположение каналов : Front: L R
Частота : 48,0 КГц
Битовая глубина : 24 бит
Метод сжатия : С потерями
Размер потока : 596 Мбайт (4%)
Заголовок : MVO, Blu-ray EUR / Премьер Видео Фильм / R5
Язык : Russian
Default : Да
Forced : Нет
Аудио #2
Идентификатор : 3
Формат : AC-3
Формат/Информация : Audio Coding 3
Расширение режима : CM (complete main)
Параметр Endianness формата : Big
Идентификатор кодека : A_AC3
Продолжительность : 1 ч. 48 м.
Вид битрейта : Постоянный
Битрейт : 384 Кбит/сек
Каналы : 6 каналов
Расположение каналов : Front: L C R, Side: L R, LFE
Частота : 48,0 КГц
Битовая глубина : 16 бит
Метод сжатия : С потерями
Размер потока : 298 Мбайт (2%)
Заголовок : DVO
Язык : Russian
Default : Нет
Forced : Нет
Аудио #3
Идентификатор : 4
Формат : AC-3
Формат/Информация : Audio Coding 3
Расширение режима : CM (complete main)
Параметр Endianness формата : Big
Идентификатор кодека : A_AC3
Продолжительность : 1 ч. 48 м.
Вид битрейта : Постоянный
Битрейт : 192 Кбит/сек
Каналы : 2 канала
Расположение каналов : Front: L R
Частота : 48,0 КГц
Битовая глубина : 16 бит
Метод сжатия : С потерями
Размер потока : 149 Мбайт (1%)
Заголовок : MVO, ОРТ / Первый Канал / СТС
Язык : Russian
Default : Нет
Forced : Нет
Аудио #4
Идентификатор : 5
Формат : AC-3
Формат/Информация : Audio Coding 3
Расширение режима : CM (complete main)
Параметр Endianness формата : Big
Идентификатор кодека : A_AC3
Продолжительность : 1 ч. 48 м.
Вид битрейта : Постоянный
Битрейт : 192 Кбит/сек
Каналы : 2 канала
Расположение каналов : Front: L R
Частота : 48,0 КГц
Битовая глубина : 16 бит
Метод сжатия : С потерями
Размер потока : 149 Мбайт (1%)
Заголовок : DVO, Universal Channel / SDI Media
Язык : Russian
Default : Нет
Forced : Нет
Аудио #5
Идентификатор : 6
Формат : DTS
Формат/Информация : Digital Theater Systems
Режим : 16
Параметр Endianness формата : Big
Идентификатор кодека : A_DTS
Продолжительность : 1 ч. 48 м.
Вид битрейта : Постоянный
Битрейт : 1510 Кбит/сек
Каналы : 6 каналов
Расположение каналов : Front: L C R, Side: L R, LFE
Частота : 48,0 КГц
Битовая глубина : 24 бит
Метод сжатия : С потерями
Размер потока : 1,14 Гбайт (8%)
Заголовок : Живов
Язык : Russian
Default : Нет
Forced : Нет
Аудио #6
Идентификатор : 7
Формат : AC-3
Формат/Информация : Audio Coding 3
Расширение режима : CM (complete main)
Параметр Endianness формата : Big
Идентификатор кодека : A_AC3
Продолжительность : 1 ч. 48 м.
Вид битрейта : Постоянный
Битрейт : 384 Кбит/сек
Каналы : 6 каналов
Расположение каналов : Front: L C R, Side: L R, LFE
Частота : 48,0 КГц
Битовая глубина : 16 бит
Метод сжатия : С потерями
Размер потока : 298 Мбайт (2%)
Заголовок : MVO, Студії «Мова» на замовлення «Україна»
Язык : Ukrainian
Default : Нет
Forced : Нет
Аудио #7
Идентификатор : 8
Формат : DTS
Формат/Информация : Digital Theater Systems
Режим : 16
Параметр Endianness формата : Big
Идентификатор кодека : A_DTS
Продолжительность : 1 ч. 48 м.
Вид битрейта : Постоянный
Битрейт : 1509 Кбит/сек
Каналы : 6 каналов
Расположение каналов : Front: L C R, Side: L R, LFE
Частота : 48,0 КГц
Битовая глубина : 24 бит
Метод сжатия : С потерями
Размер потока : 1,14 Гбайт (8%)
Язык : English
Default : Нет
Forced : Нет
Текст #1
Идентификатор : 9
Формат : UTF-8
Идентификатор кодека : S_TEXT/UTF8
Идентификатор кодека/Информация : UTF-8 Plain Text
Язык : Russian
Default : Нет
Forced : Нет
Текст #2
Идентификатор : 10
Формат : UTF-8
Идентификатор кодека : S_TEXT/UTF8
Идентификатор кодека/Информация : UTF-8 Plain Text
Язык : English
Default : Нет
Forced : Нет
Меню
00:00:00.000 : en:Main Titles
00:03:29.709 : en:Too Close to the Show
00:05:12.312 : en:Four Years Later
00:06:47.949 : en:The Second-Best Place to Live
00:10:38.679 : en:A Hot Dip
00:12:00.594 : en:The Mayor and Her Kids
00:14:31.954 : en:There's Nothing Going on....
00:18:47.668 : en:Dead in the Water
00:20:35.192 : en:The Council's Concern
00:25:56.763 : en:This Town's In Trouble...
00:27:31.608 : en:The Mayor's Invitation
00:29:12.542 : en:She's Quiet...
00:30:54.477 : en:Harry's Game
00:34:41.829 : en:The Best-Looking Mayor I've Ever Seen
00:36:37.236 : en:Spider-Legs
00:38:40.526 : en:The Trouble with Terry
00:44:36.090 : en:My Recipe for Disaster
00:46:57.231 : en:The Last Night
00:50:48.045 : en:Troubled Waters
00:52:10.961 : en:The Ticking Bomb
00:54:06.993 : en:Grandma Wants to Stay
00:55:20.317 : en:The Panic
01:01:26.224 : en:The Hard Way to Grandma's
01:04:33.452 : en:The Pilot's Error
01:06:03.250 : en:Running Out of Time
01:08:52.545 : en:God's Big Show
01:11:32.705 : en:Don't Touch the Water!
01:14:56.325 : en:Grandma's Choice
01:17:03.577 : en:The Last Mile
01:18:47.431 : en:Meltdown
01:20:56.977 : en:The Bridge
01:23:03.395 : en:The Burning Fields
01:27:34.290 : en:The Killer Cloud
01:29:38.122 : en:Graham's Hideout
01:32:31.128 : en:The Big Squeeze
01:35:49.493 : en:Thank You, Nasa!
01:38:12.386 : en:Out of the Ashes
01:40:46.040 : en:End Titles

-
Цитата:
* Спасибо JUSTKANT за дорожки №3,4.
* Спасибо jarga за дорожку с Живовым.
Скачать

Скачать торрент!

Как скачивать? · Что такое торрент? · Рейтинг и ограничения

Сайт не распространяет и не хранит электронные версии произведений, а лишь предоставляет доступ к создаваемому пользователями каталогу ссылок на торрент-файлы, которые содержат только списки хеш-сумм

[Профиль] [ЛС]
Показать сообщения:    
Ответить на тему

Текущее время: Сегодня 06:11

Часовой пояс: GMT + 4



Вы не можете начинать темы
Вы не можете отвечать на сообщения
Вы не можете редактировать свои сообщения
Вы не можете удалять свои сообщения
Вы не можете голосовать в опросах
Вы не можете прикреплять файлы к сообщениям
Вы не можете скачивать файлы