Черная кошка / Black Cat / Hei mao (Стефен Шин / Stephen Shin) [1991, Гонконг, боевик, драма, DVDRip] AVO (Володарский)

Ответить на тему
 
Автор Сообщение

user ®

Стаж: 13 лет

Сообщений: 15071

Пост Пост: #1 от 26-Фев-2015 09:15

[Цитировать]

Черная кошкаBlack Cat / Hei mao Страна: Гонконг
Жанр: боевик, драма
Год выпуска: 1991
Продолжительность: 01:31:29-Перевод: Авторский (одноголосый закадровый) Леонид Володарский (VHS)
Cубтитры: нет-Режиссер: Стефен Шин / Stephen Shin
В ролях: Глен Моррисон, Томас Лам, Кертис Фрайзер, Джейд Леунг, Денис Стойффер, Одри Рене, Рэнди Линн, Саймон Ям, Джорди Шэйн-Описание: Кэтрин — волевая молодая женщина, получила ранение во время одной из своих авантюр, попав в эпицентр операции, проводимой правительственными службами. Очнувшись в учебном центре по подготовке секретных агентов, она получает предложение пройти специальную подготовку и пойти на службу государству. Теперь ее зовут Черной Кошкой, она убийца и работает на правительство. Но когда в ее жизни появляется молодой человек, ей приходится делать выбор между чувствами и долгом.-Сэмпл-Качество видео: DVDRip
Формат видео: AVI
Видео: 720x400 (1.80:1), 29.970 fps, XviD build 50 ~1939 kbps avg, 0.22 bit/pixel
Аудио: 48 kHz, AC3 Dolby Digital, 2/0 (L,R) ch, ~192 kbps
MediaInfo
Общее
Полное имя : E:\Downloads\Black.Cat.1991.avi
Формат : AVI
Формат/Информация : Audio Video Interleave
Размер файла : 1,37 Гбайт
Продолжительность : 1 ч. 31 м.
Общий поток : 2143 Кбит/сек
Программа кодирования : VirtualDubMod 1.5.10.2 (build 2540/release)
Библиотека кодирования : VirtualDubMod build 2540/release
Видео
Идентификатор : 0
Формат : MPEG-4 Visual
Профиль формата : Advanced Simple@L5
Параметр BVOP формата : 1
Параметр QPel формата : Нет
Параметр GMC формата : Без точки перехода
Параметр матрицы формата : Default (MPEG)
Идентификатор кодека : XVID
Идентификатор кодека/Подсказка : XviD
Продолжительность : 1 ч. 31 м.
Битрейт : 1939 Кбит/сек
Ширина : 720 пикселей
Высота : 400 пикселей
Соотношение сторон : 16:9
Частота кадров : 29,970 кадров/сек
Цветовое пространство : YUV
Субдискретизация насыщенности : 4:2:0
Битовая глубина : 8 бит
Тип развёртки : Прогрессивная
Метод сжатия : С потерями
Бит/(Пиксели*Кадры) : 0.225
Размер потока : 1,24 Гбайт (90%)
Библиотека кодирования : XviD 1.2.1 (UTC 2008-12-04)
Аудио
Идентификатор : 1
Формат : AC-3
Формат/Информация : Audio Coding 3
Расширение режима : CM (complete main)
Параметр Endianness формата : Big
Идентификатор кодека : 2000
Продолжительность : 1 ч. 31 м.
Вид битрейта : Постоянный
Битрейт : 192 Кбит/сек
Каналы : 2 канала
Расположение каналов : Front: L R
Частота : 48,0 КГц
Битовая глубина : 16 бит
Метод сжатия : С потерями
Размер потока : 126 Мбайт (9%)
Выравнивание : Разделение по промежуткам
Продолжительность промежутка : 33 мс. (1,00 видеокадр)
Время предзагрузки промежутка : 500 мс.
Скриншот c названием фильма Скриншоты
Скачать

Скачать торрент! Черная кошка / Black Cat / Hei mao (Стефен Шин / Stephen Shin) [1991, Гонконг, боевик, драма, DVDRip] AVO (Володарский)

Как скачивать? · Что такое торрент? · Рейтинг и ограничения

Сайт не распространяет и не хранит электронные версии произведений, а лишь предоставляет доступ к создаваемому пользователями каталогу ссылок на торрент-файлы, которые содержат только списки хеш-сумм

[Профиль] [ЛС]
Показать сообщения:    
Ответить на тему

Текущее время: Сегодня 17:49

Часовой пояс: GMT + 4



Вы не можете начинать темы
Вы не можете отвечать на сообщения
Вы не можете редактировать свои сообщения
Вы не можете удалять свои сообщения
Вы не можете голосовать в опросах
Вы не можете прикреплять файлы к сообщениям
Вы не можете скачивать файлы