Джейсон отправляется в ад: Последняя пятница / Jason Goes To Hell: The Final Friday (Адам Маркус / Adam Marcus) [1993, США, ужасы, фантастика, мистика, BDRip 1080p] DVO, AVO + Sub Rus, Sub Eng + Original Eng

Ответить на тему
 
Автор Сообщение

user ®

Стаж: 7 лет 7 месяцев

Сообщений: 20008

Пост Пост: #1 от 26-Фев-2015 02:30

[Цитировать]

Джейсон отправляется в ад: Последняя пятница
Jason Goes To Hell: The Final Friday
-
-
- Год выпуска: 1993
Страна: США
Жанр: Ужасы, фантастика, мистика
Продолжительность: 01:27:46-
-
-Перевод: Профессиональный (двухголосый закадровый) НТВ+
Перевод: Авторский (одноголосый закадровый) Живов, Горчаков, Алексеев, Дольский, Иванов, Санаев
Оригинальная аудиодорожка: Английский
Субтитры: Русские, английские
Режиссер: Адам Маркус / Adam Marcus
В ролях: Джон Д. Ле Мэй, Кэри Киган, Эллисон Смит, Стивен Калп, Билли "Грин" Буш, Эрин Грэй, Стивен Уильямс, Кейн Ходдер--Описание: Попавший в ловушку, устроенную ФБР и взорванный бомбой, Джейсон возвращается к жизни в теле чернокожего патологоанатома, делавшего вскрытие обгоревшего трупа маньяка. Начинаются немотивированные и беспричинные убийства невинных людей перемещающегося из тела в тело Джейсона.
Общественность предлагает охотнику за маньяками Крейтону Дьюку пятьсот тысяч долларов за то, чтобы тот уничтожил Джейсона. Стивен Фриман, живущий поблизости от Кристального озера, догадывается, что Джейсон ищет оставшихся в живых членов своей семьи, чтобы войти в «родное» тело. Он пытается защитить свою подругу Джессику, которая является единственным потомком семейки Вурхисов…- -Качество: BDRip 1080p
Формат: MKV
Видео кодек: H264
Аудио кодек: AC3
Видео: MPEG4 Video (H264), 1920x1080, 23.976fps, 14.0 Mbps
Аудио #1: Русский, Dolby AC3, 48000 Hz, 2ch, 192 kbps - Двухгоголосый (НТВ+)
Аудио #2: Русский, Dolby AC3, 48000 Hz, 6ch, 448 kbps - Одноголосый (Ю. Живов)
Аудио #3: Русский, Dolby AC3, 48000 Hz, 2ch, 192 kbps - Одноголосый (В. Горчаков)
Аудио #4: Русский, Dolby AC3, 48000 Hz, 2ch, 192 kbps - Одноголосый (А. Алексеев)
Аудио #5: Русский, Dolby AC3, 48000 Hz, 2ch, 192 kbps - Одноголосый (А. Дольский)
Аудио #6: Русский, Dolby AC3, 48000 Hz, 2ch, 192 kbps - Одноголосый (М. Иванов)
Аудио #7: Русский, Dolby AC3, 48000 Hz, 2ch, 192 kbps - Одноголосый (П. Санаев)
Аудио #8: Английский, Dolby AC3, 48000 Hz, 6ch, 448 kbps
Формат субтитров: Softsub (SRT)

Сэмпл
MediaInfo:
General
Unique ID : 185279143742583139996832010327644566590 (0x8B637710D25262E2904D846515A5F43E)
Complete name : F:DVDRip1993 Джейсон отправляется в ад - Последняя пятница.mkv
Format : Matroska
Format version : Version 4 / Version 2
File size : 9.84 GiB
Duration : 1h 27mn
Overall bit rate : 16.0 Mbps
Encoded date : UTC 2014-12-17 07:42:44
Writing application : mkvmerge v7.1.0 ('Good Love') 32bit built on Jul 27 2014 12:59:18
Writing library : libebml v1.3.0 + libmatroska v1.4.1
DURATION : 01:21:33.930000000
NUMBER_OF_FRAMES : 687
NUMBER_OF_BYTES : 36138
_STATISTICS_WRITING_APP : mkvmerge v7.1.0 ('Good Love') 32bit built on Jul 27 2014 12:59:18
_STATISTICS_WRITING_DATE_UTC : 2014-12-17 07:42:44
_STATISTICS_TAGS : BPS DURATION NUMBER_OF_FRAMES NUMBER_OF_BYTES
Video
ID : 1
Format : AVC
Format/Info : Advanced Video Codec
Format profile : High@L4.1
Format settings, CABAC : Yes
Format settings, ReFrames : 4 frames
Codec ID : V_MPEG4/ISO/AVC
Duration : 1h 27mn
Bit rate : 14.0 Mbps
Width : 1 920 pixels
Height : 1 080 pixels
Display aspect ratio : 16:9
Frame rate mode : Constant
Frame rate : 23.976 fps
Color space : YUV
Chroma subsampling : 4:2:0
Bit depth : 8 bits
Scan type : Progressive
Bits/(Pixel*Frame) : 0.282
Stream size : 8.39 GiB (85%)
Title : Джейсон отправляется в ад: Последняя пятница [Цензурная версия] / renta23
Writing library : x264 core 125 r2208 d9d2288
Encoding settings : cabac=1 / ref=5 / deblock=1:-1:-1 / analyse=0x3:0x133 / me=umh / subme=11 / psy=1 / psy_rd=1.20:0.25 / mixed_ref=1 / me_range=32 / chroma_me=1 / trellis=2 / 8x8dct=1 / cqm=0 / deadzone=21,11 / fast_pskip=0 / chroma_qp_offset=-4 / threads=12 / lookahead_threads=2 / sliced_threads=0 / nr=0 / decimate=1 / interlaced=0 / bluray_compat=0 / constrained_intra=0 / bframes=12 / b_pyramid=1 / b_adapt=2 / b_bias=0 / direct=3 / weightb=1 / open_gop=0 / weightp=2 / keyint=250 / keyint_min=23 / scenecut=40 / intra_refresh=0 / rc_lookahead=50 / rc=2pass / mbtree=1 / bitrate=14000 / ratetol=1.0 / qcomp=0.60 / qpmin=0 / qpmax=69 / qpstep=4 / cplxblur=20.0 / qblur=0.5 / ip_ratio=1.40 / aq=1:1.00
Language : English
Default : Yes
Forced : No
Audio #1
ID : 2
Format : AC-3
Format/Info : Audio Coding 3
Mode extension : CM (complete main)
Format settings, Endianness : Big
Codec ID : A_AC3
Duration : 1h 27mn
Bit rate mode : Constant
Bit rate : 192 Kbps
Channel(s) : 2 channels
Channel positions : Front: L R
Sampling rate : 48.0 KHz
Bit depth : 16 bits
Compression mode : Lossy
Stream size : 121 MiB (1%)
Title : Двухгоголосый (НТВ+)
Language : Russian
Default : Yes
Forced : No
Audio #2
ID : 3
Format : AC-3
Format/Info : Audio Coding 3
Mode extension : CM (complete main)
Format settings, Endianness : Big
Codec ID : A_AC3
Duration : 1h 27mn
Bit rate mode : Constant
Bit rate : 448 Kbps
Channel(s) : 6 channels
Channel positions : Front: L C R, Side: L R, LFE
Sampling rate : 48.0 KHz
Bit depth : 16 bits
Compression mode : Lossy
Stream size : 281 MiB (3%)
Title : Одноголосый (Ю. Живов)
Language : Russian
Default : No
Forced : No
Audio #3
ID : 4
Format : AC-3
Format/Info : Audio Coding 3
Mode extension : CM (complete main)
Format settings, Endianness : Big
Codec ID : A_AC3
Duration : 1h 27mn
Bit rate mode : Constant
Bit rate : 192 Kbps
Channel(s) : 2 channels
Channel positions : Front: L R
Sampling rate : 48.0 KHz
Bit depth : 16 bits
Compression mode : Lossy
Stream size : 121 MiB (1%)
Title : Одноголосый (В. Горчаков)
Language : Russian
Default : No
Forced : No
Audio #4
ID : 5
Format : AC-3
Format/Info : Audio Coding 3
Mode extension : CM (complete main)
Format settings, Endianness : Big
Codec ID : A_AC3
Duration : 1h 27mn
Bit rate mode : Constant
Bit rate : 192 Kbps
Channel(s) : 2 channels
Channel positions : Front: L R
Sampling rate : 48.0 KHz
Bit depth : 16 bits
Compression mode : Lossy
Stream size : 121 MiB (1%)
Title : Одноголосый (А. Алексеев)
Language : Russian
Default : No
Forced : No
Audio #5
ID : 6
Format : AC-3
Format/Info : Audio Coding 3
Mode extension : CM (complete main)
Format settings, Endianness : Big
Codec ID : A_AC3
Duration : 1h 27mn
Bit rate mode : Constant
Bit rate : 192 Kbps
Channel(s) : 2 channels
Channel positions : Front: L R
Sampling rate : 48.0 KHz
Bit depth : 16 bits
Compression mode : Lossy
Stream size : 121 MiB (1%)
Title : Одноголосый (А. Дольский)
Language : Russian
Default : No
Forced : No
Audio #6
ID : 7
Format : AC-3
Format/Info : Audio Coding 3
Mode extension : CM (complete main)
Format settings, Endianness : Big
Codec ID : A_AC3
Duration : 1h 27mn
Bit rate mode : Constant
Bit rate : 192 Kbps
Channel(s) : 2 channels
Channel positions : Front: L R
Sampling rate : 48.0 KHz
Bit depth : 16 bits
Compression mode : Lossy
Stream size : 121 MiB (1%)
Title : Одноголосый (М. Иванов)
Language : Russian
Default : No
Forced : No
Audio #7
ID : 8
Format : AC-3
Format/Info : Audio Coding 3
Mode extension : CM (complete main)
Format settings, Endianness : Big
Codec ID : A_AC3
Duration : 1h 27mn
Bit rate mode : Constant
Bit rate : 192 Kbps
Channel(s) : 2 channels
Channel positions : Front: L R
Sampling rate : 48.0 KHz
Bit depth : 16 bits
Compression mode : Lossy
Stream size : 121 MiB (1%)
Title : Одноголосый (П. Санаев)
Language : Russian
Default : No
Forced : No
Audio #8
ID : 9
Format : AC-3
Format/Info : Audio Coding 3
Mode extension : CM (complete main)
Format settings, Endianness : Big
Codec ID : A_AC3
Duration : 1h 27mn
Bit rate mode : Constant
Bit rate : 448 Kbps
Channel(s) : 6 channels
Channel positions : Front: L C R, Side: L R, LFE
Sampling rate : 48.0 KHz
Bit depth : 16 bits
Compression mode : Lossy
Stream size : 281 MiB (3%)
Language : English
Default : No
Forced : No
Text #1
ID : 10
Format : UTF-8
Codec ID : S_TEXT/UTF8
Codec ID/Info : UTF-8 Plain Text
Language : Russian
Default : No
Forced : No
Text #2
ID : 11
Format : UTF-8
Codec ID : S_TEXT/UTF8
Codec ID/Info : UTF-8 Plain Text
Language : English
Default : No
Forced : No
Menu
00:00:00.000 : en:Chapter 01
00:03:28.958 : en:Chapter 02
00:07:52.472 : en:Chapter 03
00:12:40.050 : en:Chapter 04
00:16:30.489 : en:Chapter 05
00:20:17.883 : en:Chapter 06
00:23:48.301 : en:Chapter 07
00:26:19.703 : en:Chapter 08
00:31:30.471 : en:Chapter 09
00:35:45.143 : en:Chapter 10
00:40:50.197 : en:Chapter 11
00:44:13.067 : en:Chapter 12
00:49:06.860 : en:Chapter 13
00:52:55.088 : en:Chapter 14
00:58:22.248 : en:Chapter 15
01:03:07.533 : en:Chapter 16
01:07:02.768 : en:Chapter 17
01:11:37.918 : en:Chapter 18
01:14:56.325 : en:Chapter 19
01:23:20.787 : en:Chapter 20
Скриншоты:
Скачать

Скачать торрент!

Как скачивать? · Что такое торрент? · Рейтинг и ограничения

Сайт не распространяет и не хранит электронные версии произведений, а лишь предоставляет доступ к создаваемому пользователями каталогу ссылок на торрент-файлы, которые содержат только списки хеш-сумм

[Профиль] [ЛС]
Показать сообщения:    
Ответить на тему

Текущее время: Сегодня 21:25

Часовой пояс: GMT + 4



Вы не можете начинать темы
Вы не можете отвечать на сообщения
Вы не можете редактировать свои сообщения
Вы не можете удалять свои сообщения
Вы не можете голосовать в опросах
Вы не можете прикреплять файлы к сообщениям
Вы не можете скачивать файлы