Ёлки 1914 (Тимур Бекмамбетов, Ольга Харина, Юрий Быков, Дмитрий Киселев, Александр Котт, Александр Карпиловский) [2014, Комедия, семейный, драма, приключения, BDRip]

Ответить на тему
 
Автор Сообщение

user ®

Стаж: 7 лет 7 месяцев

Сообщений: 20008

Пост Пост: #1 от 25-Фев-2015 19:54

[Цитировать]

Ёлки 1914
Жанр: Комедия, семейный, драма, приключения
Год выпуска: 2014
Продолжительность: 01:47:37
Режиссёр: Тимур Бекмамбетов, Ольга Харина, Юрий Быков, Дмитрий Киселев, Александр Котт, Александр Карпиловский
В ролях: Иван Ургант, Сергей Светлаков, Мария Порошина, Виктор Вержбицкий, Артур Смольянинов, Александр Головин, Александр Домогаров-мл., Анна Хилькевич, Ян Цапник, Екатерина Шпица, Владимир Гостюхин, Антон Богданов, Галина Стаханова
Описание: 100 лет назад, Российская империя... Канун Рождества. Декабрьские пробки, праздничные гулянья, роскошные балы и скромные праздники, титулованные дворяне и обычные крестьяне, царская семья и солдаты первой мировой войны, прогрессивные поэты и первые фигуристы - все было по-другому, за исключением... праздника. Люди готовились, жили, верили, мечтали и ждали настоящего чуда - Рождества!

Качество видео: BDRip [Исходник: Blu-ray 1080p AVC DTS-HD 5.1]
Формат видео: AVI
Видео: XviD, 720x304 (2.35:1), 1550 Кбит/с, 24 кадр/с
Аудио: Русский, Dolby AC3, 48000 Гц, 384 Кбит/с, 6 каналов (5.1)

Автор рипа - ivandubskoj
MediaInfo
General
Complete name : Yolki.1914.2014.BDRip.1.45GB.avi
Format : AVI
Format/Info : Audio Video Interleave
File size : 1.46 GiB
Duration : 1h 47mn
Overall bit rate : 1 942 Kbps
Writing application : VirtualDubMod 1.5.10.3 (build 2550/release)
Writing library : VirtualDubMod build 2550/release
Copyright : rip by ivandubskoj
Video
ID : 0
Format : MPEG-4 Visual
Format profile : Advanced Simple@L5
Format settings, BVOP : 1
Format settings, QPel : No
Format settings, GMC : No warppoints
Format settings, Matrix : Custom
Codec ID : XVID
Codec ID/Hint : XviD
Duration : 1h 47mn
Bit rate : 1 550 Kbps
Width : 720 pixels
Height : 304 pixels
Display aspect ratio : 2.35:1
Frame rate : 24.000 fps
Color space : YUV
Chroma subsampling : 4:2:0
Bit depth : 8 bits
Scan type : Progressive
Compression mode : Lossy
Bits/(Pixel*Frame) : 0.295
Stream size : 1.17 GiB (80%)
Writing library : XviD 73
Audio
ID : 1
Format : AC-3
Format/Info : Audio Coding 3
Mode extension : CM (complete main)
Codec ID : 2000
Duration : 1h 47mn
Bit rate mode : Constant
Bit rate : 384 Kbps
Channel(s) : 6 channels
Channel positions : Front: L C R, Side: L R, LFE
Sampling rate : 48.0 KHz
Bit depth : 16 bits
Compression mode : Lossy
Stream size : 296 MiB (20%)
Alignment : Split accross interleaves
Interleave, duration : 64 ms (1.54 video frames)
Interleave, preload duration : 500 ms
Скриншот c названием фильма Скриншоты
Скачать

Скачать торрент!

Как скачивать? · Что такое торрент? · Рейтинг и ограничения

Сайт не распространяет и не хранит электронные версии произведений, а лишь предоставляет доступ к создаваемому пользователями каталогу ссылок на торрент-файлы, которые содержат только списки хеш-сумм

[Профиль] [ЛС]
Показать сообщения:    
Ответить на тему

Текущее время: Сегодня 12:55

Часовой пояс: GMT + 4



Вы не можете начинать темы
Вы не можете отвечать на сообщения
Вы не можете редактировать свои сообщения
Вы не можете удалять свои сообщения
Вы не можете голосовать в опросах
Вы не можете прикреплять файлы к сообщениям
Вы не можете скачивать файлы