Летний дворец / Summer palace / Yihe yuan (Лоу Е / Lou Ye) [2006, Китай, Франция, драма, мелодрама, DVDRip] MVO

Ответить на тему
 
Автор Сообщение

user ®

Стаж: 13 лет

Сообщений: 15071

Пост Пост: #1 от 25-Фев-2015 02:42

[Цитировать]

Летний дворец / Summer palace / Yihe yuan- -Страна: Китай, Франция
Жанр: драма, мелодрама
Год выпуска: 2006
Продолжительность: 02:14:33--Перевод: Профессиональный (многоголосый закадровый)
Cубтитры: нет
Оригинальная аудиодорожка: нет
Режиссер: Лоу Е / Lou Ye
В ролях: Бай Сюэюнь, Лин Куи, Ихун Дуань, Го Сяодун, Лэй Хао, Линг Ху, Чи Ле, Мэйхуйцзы Цзэн, Сяньмин Чжан...
Описание: Юй Хун покидает свою деревню, своих родителей и своего возлюбленного и едет учиться в Пекин. В университете она открывает для себя новый мир, полный сексуальной свободы и запретных удовольствий. Поглощенная этой свободой, она безумно влюбляется в своего сокурсника Чжоу Вэя. Страсть, которую они не могут ни понять, ни удержать, наполняет их отношения предательством, взаимными обвинениями и бесконечными провокациями. А в это время пекинские студенты начинают устраивать демонстрации, требуя демократии и свободы. Среди хаоса и паники Юй и Чжоу теряют друг друга… Чжоу посылают в военный лагерь, выйдя из которого, он улетает в Берлин, оставляя свою страну и воспоминания о Юй. А она находит работу и любовника, но никак не может забыть Чжоу.
Релиз от -
Сэмпл: http://multi-up.com/1034954
Качество видео: DVDRip
Формат видео: AVI
Видео: MPEG-4 Visual at 1357 Кбит/сек; 704 x 384 (1.833) at 25.000 fps
Аудио: AC-3 at 192 Кбит/сек; 6 каналов, 48,0 КГц
Автор -
MediaInfo
Общее
Полное имя : D:\Фильмы\Азиатские\Летний дворец\Summer Palace.2006.DVDRip.XviD.1400MB. rip by [Assassin's Creed].avi
Формат : AVI
Формат/Информация : Audio Video Interleave
Размер файла : 1,46 Гбайт
Продолжительность : 2 ч. 14 м.
Общий поток : 1559 Кбит/сек
Программа кодирования : VirtualDubMod 1.5.10.3 | www.virtualdub-fr.org || (build 2550/release)
Библиотека кодирования : VirtualDubMod build 2550/release
Видео
Идентификатор : 0
Формат : MPEG-4 Visual
Профиль формата : Advanced Simple@L5
Параметр BVOP формата : 1
Параметр QPel формата : Нет
Параметр GMC формата : Без точки перехода
Параметр матрицы формата : Default (MPEG)
Идентификатор кодека : XVID
Идентификатор кодека/Подсказка : XviD
Продолжительность : 2 ч. 14 м.
Битрейт : 1357 Кбит/сек
Ширина : 704 пикселя
Высота : 384 пикселя
Соотношение сторон : 1,85:1
Частота кадров : 25,000 кадров/сек
Цветовое пространство : YUV
Субдискретизация насыщенности : 4:2:0
Битовая глубина : 8 бит
Тип развёртки : Прогрессивная
Метод сжатия : С потерями
Бит/(Пиксели*Кадры) : 0.201
Размер потока : 1,28 Гбайт (87%)
Библиотека кодирования : XviD 1.2.1 (UTC 2008-12-04)
Аудио
Идентификатор : 1
Формат : AC-3
Формат/Информация : Audio Coding 3
Расширение режима : CM (complete main)
Параметр Endianness формата : Big
Идентификатор кодека : 2000
Продолжительность : 2 ч. 14 м.
Вид битрейта : Постоянный
Битрейт : 192 Кбит/сек
Каналы : 6 каналов
Расположение каналов : Front: L C R, Side: L R, LFE
Частота : 48,0 КГц
Битовая глубина : 16 бит
Метод сжатия : С потерями
Размер потока : 185 Мбайт (12%)
Выравнивание : Разделение по промежуткам
Продолжительность промежутка : 40 мс. (1,00 видеокадр)
Время предзагрузки промежутка : 500 мс.
Скриншот c названием фильма Скриншоты
Скачать

Скачать торрент! Летний дворец / Summer palace / Yihe yuan (Лоу Е / Lou Ye) [2006, Китай, Франция, драма, мелодрама, DVDRip] MVO

Как скачивать? · Что такое торрент? · Рейтинг и ограничения

Сайт не распространяет и не хранит электронные версии произведений, а лишь предоставляет доступ к создаваемому пользователями каталогу ссылок на торрент-файлы, которые содержат только списки хеш-сумм

[Профиль] [ЛС]
Показать сообщения:    
Ответить на тему

Текущее время: Сегодня 17:32

Часовой пояс: GMT + 4



Вы не можете начинать темы
Вы не можете отвечать на сообщения
Вы не можете редактировать свои сообщения
Вы не можете удалять свои сообщения
Вы не можете голосовать в опросах
Вы не можете прикреплять файлы к сообщениям
Вы не можете скачивать файлы