Санта Клаус / Santa Claus (Жанно Шварц / Jeannot Szwarc) [1985, Великобритания, США, фэнтези, приключения, семейный, BDRip 720p] DVO (ОРТ) + Original Eng

Ответить на тему
 
Автор Сообщение

user ®

Стаж: 7 лет 7 месяцев

Сообщений: 20008

Пост Пост: #1 от 24-Фев-2015 20:33

[Цитировать]

Санта Клаус / Santa Claus
Страна: Великобритания, США
Жанр: фэнтези, приключения, семейный
Год выпуска: 1985
Продолжительность: 01:48:19
Перевод: Профессиональный (двухголосый закадровый) ОРТ
Cубтитры: нет
Оригинальная аудиодорожка: английский
Режиссер: Жанно Шварц / Jeannot Szwarc
В ролях: Дадли Мур (Patch), Джон Литгоу (B.Z.), Дэвид Хаддлстон (Santa Claus), Бёрджесс Мередит (Ancient Elf), Джуди Корнуэлл (Anya Claus), Джефри Крамер (Towzer), Кристиан Фицпатрик (Joe), Кэрри Кей Хейм (Cornelia), Джон Баррард (Dooley), Энтони О'Доннелл (Puffy)
Описание: Однажды, давным-давно, в зимнюю стужу ледоруб Клаус отправился в лес на оленях. И не один, а со своей женой Аней. В лесу на горе поднялась буря, и Клаус с Аней замерзли. Больше на земле никто никогда их не видел. Потому что добрые эльфы забрали бедняжек в волшебную страну, оживили их и превратили простого лапландского лесоруба в волшебного Сайта Клауса. Долгие годы возил добрый Санта игрушки детям под Рождество. И вот однажды случилось непоправимое: мир изменился и игрушки эльфов устарели. И тогда друг Санты Панч придумал такое… Ни в сказке сказать, ни пером описать.
Доп. информация: За оцифровку перевода от телеканала ОРТ с лицензионной видеокассеты от видео-компании ОРТ-Видео большое спасибо Fikaloid
Синхронизация перевода - JUSTKANT.

Релиз
Сэмпл: https://yadi.sk/i/ljwywMr1er594
Тип релиза: BDRip 720p [Santa Claus 1985 720p BRRip x264 AC3 SiNDK8]
Контейнер: MKV
Видео: MPEG4 Video (H264) 1280x544 24fps 5 333 Кбит/с
Аудио: 48 khz, AC3 Dolby Digital, 2/0 (L,R) ch, ~192 kbps [ОРТ / ОРТ-Видео] VHS
Аудио 2: 48 khz, AC3 Dolby Digital, 2/0 (L,R) ch, ~640 kbps Eng
MediaInfo
Santa Claus 1985 720p BRRip x264 AC3 SiNDK8\Santa Claus 1985 720p BRRip x264.mkv
Format : Matroska
Format version : Version 4 / Version 2
File size : 4.03 GiB
Duration : 1h 48mn
Overall bit rate : 5 333 Kbps
Encoded date : UTC 2015-02-23 13:14:44
Writing application : mkvmerge v6.5.0 ('Isn't she lovely') built on Oct 20 2013 12:50:05
Writing library : libebml v1.3.0 + libmatroska v1.4.1
Video
ID : 1
Format : AVC
Format/Info : Advanced Video Codec
Format profile : High@L4.1
Format settings, CABAC : Yes
Format settings, ReFrames : 5 frames
Codec ID : V_MPEG4/ISO/AVC
Duration : 1h 48mn
Bit rate : 4 499 Kbps
Width : 1 280 pixels
Height : 544 pixels
Display aspect ratio : 2.35:1
Frame rate mode : Constant
Frame rate : 24.000 fps
Color space : YUV
Chroma subsampling : 4:2:0
Bit depth : 8 bits
Scan type : Progressive
Bits/(Pixel*Frame) : 0.269
Stream size : 3.33 GiB (82%)
Writing library : x264 core 138 r2358 9e941d1
Encoding settings : cabac=1 / ref=5 / deblock=1:0:0 / analyse=0x3:0x113 / me=umh / subme=9 / psy=1 / psy_rd=1.00:0.00 / mixed_ref=1 / me_range=16 / chroma_me=1 / trellis=2 / 8x8dct=1 / cqm=0 / deadzone=21,11 / fast_pskip=1 / chroma_qp_offset=-2 / threads=8 / lookahead_threads=8 / sliced_threads=1 / slices=8 / nr=0 / decimate=1 / interlaced=0 / bluray_compat=0 / constrained_intra=0 / bframes=3 / b_pyramid=2 / b_adapt=2 / b_bias=0 / direct=3 / weightb=1 / open_gop=0 / weightp=2 / keyint=240 / keyint_min=24 / scenecut=45 / intra_refresh=0 / rc_lookahead=45 / rc=2pass / mbtree=0 / bitrate=4499 / ratetol=1.0 / qcomp=0.60 / qpmin=0 / qpmax=60 / qpstep=4 / cplxblur=20.0 / qblur=0.5 / vbv_maxrate=35000 / vbv_bufsize=35000 / nal_hrd=none / ip_ratio=1.40 / pb_ratio=1.30 / aq=1:1.00
Default : Yes
Forced : No
Audio #1
ID : 2
Format : AC-3
Format/Info : Audio Coding 3
Mode extension : CM (complete main)
Format settings, Endianness : Big
Codec ID : A_AC3
Duration : 1h 48mn
Bit rate mode : Constant
Bit rate : 192 Kbps
Channel(s) : 2 channels
Channel positions : Front: L R
Sampling rate : 48.0 KHz
Bit depth : 16 bits
Compression mode : Lossy
Stream size : 149 MiB (4%)
Language : Russian
Default : No
Forced : No
Audio #2
ID : 3
Format : AC-3
Format/Info : Audio Coding 3
Mode extension : CM (complete main)
Format settings, Endianness : Big
Codec ID : A_AC3
Duration : 1h 48mn
Bit rate mode : Constant
Bit rate : 640 Kbps
Channel(s) : 2 channels
Channel positions : Front: L R
Sampling rate : 48.0 KHz
Bit depth : 16 bits
Compression mode : Lossy
Stream size : 496 MiB (12%)
Language : English
Default : Yes
Forced : No
Скриншоты
Скачать

Скачать торрент!

Как скачивать? · Что такое торрент? · Рейтинг и ограничения

Сайт не распространяет и не хранит электронные версии произведений, а лишь предоставляет доступ к создаваемому пользователями каталогу ссылок на торрент-файлы, которые содержат только списки хеш-сумм

[Профиль] [ЛС]
Показать сообщения:    
Ответить на тему

Текущее время: Сегодня 18:31

Часовой пояс: GMT + 4



Вы не можете начинать темы
Вы не можете отвечать на сообщения
Вы не можете редактировать свои сообщения
Вы не можете удалять свои сообщения
Вы не можете голосовать в опросах
Вы не можете прикреплять файлы к сообщениям
Вы не можете скачивать файлы