Левиафан / Leviathan (Джордж П. Косматос / George P. Cosmatos) [1989, США, Италия, ужасы, фантастика, триллер, приключения, BDRip 720p] MVO + AVO (Гаврилов) + Sub Eng + Original Eng

Ответить на тему
 
Автор Сообщение

user ®

Стаж: 7 лет 7 месяцев

Сообщений: 20008

Пост Пост: #1 от 24-Фев-2015 17:24

[Цитировать]

Левиафан / Leviathan
«Aliens thrilled you... The Fly shocked you... Now experience real fear...»
- Страна: США, Италия
Студия: Metro-Goldwyn-Mayer (MGM)
Жанр: ужасы, фантастика, триллер, приключения
Год выпуска: 1989
Продолжительность: 01:38:00-Перевод#1: Профессиональный (многоголосый закадровый)
Перевод#2: Авторский (одноголосый закадровый) А. Гаврилов
Cубтитры: English { Full } | *srt
Оригинальная звуковая дорожка: English-Режиссер: Джордж П. Косматос / George P. Cosmatos
Сценарий: Дэвид Уэбб Пиплз / David Webb Peoples
Продюсер: Аурелио Де Лаурентис / Aurelio De Laurentiis, Лоуренс Гордон / Lawrence Gordon
Оператор: Алекс Томсон / Alex Thomson
Композитор: Джерри Голдсмит / Jerry Goldsmith-В ролях:
Питер Уэллер (Steven Beck), Ричард Кренна (Dr. Glen «Doc» Thompson), Аманда Пейс ( Elizabeth «Willie» Williams), Дэниел Стерн (Buzz «Sixpack» Parrish), Эрни Хадсон (Justin Jones), Лиза Айлбахер (Bridget Bowman), Гектор Элисондо (G. P. Cobb), Мег Фостер (Ms. Martin), Юджин Липински (Russian Ship Captain).-Сборы в США: $15 704 614-Мировая премьера: 17 марта 1989-Описание:
Во время вахтенных работ по добыче руды на пятикилометровой глубине в Атлантике один из техников находит затонувшее русское судно. Вскоре выясняется, что на судне велись секретные эксперименты. В сейфе, принесенном из корабля на подводную базу шахтеров, находятся записи о таинственной болезни, поразившей весь экипаж корабля. Вскоре один из шахтеров умирает и мутирует в жуткое чудовище, которое начинает уничтожать все живое на своем пути…-Рейтинг
kinopoisk.ru: 6.207 (1939)
imdb.com: 5.70 (11 148)
MPAA: - Детям до 17 лет обязательно присутствие родителей-Тип релиза: BD-Rip «720p»
Источник: Leviathan.(1989).BD-REMUX.1080p.(US Transfer)
Формат: MKV | Sample
Видео: 1280x546 at 23.976 fps, x264@L4.1, 2pass, ~11700 kbps avg
Аудио#1: 48.0 kHz, DTS, 3/2 (L,C,R,l,r) + LFE ch, ~1509.00 kbps avg | MVO
Аудио#2: 48.0 kHz, DTS, 3/2 (L,C,R,l,r) + LFE ch, ~1509.00 kbps avg | AVO
Аудио#3: 48.0 kHz, DTS, 3/2 (L,C,R,l,r) + LFE ch, ~1509.00 kbps avg | ENG
-MI
Общее
Уникальный идентификатор : 245943899907231068606669553660640387276 (0xB90712783AFFEBF2905BB55224C060CC)
Полное имя : Livathan.1989.BDRip.720p.BluRay.US.2xRus.Eng.mkv
Формат : Matroska
Версия формата : Version 4 / Version 2
Размер файла : 11,1 Гбайт
Продолжительность : 1 ч. 38 м.
Общий поток : 16,2 Мбит/сек
Дата кодирования : UTC 2015-02-16 16:31:50
Программа кодирования : mkvmerge v6.1.0 ('Old Devil') built on Mar 4 2013 09:10:42
Библиотека кодирования : libebml v1.3.0 + libmatroska v1.4.0
Видео
Идентификатор : 1
Формат : AVC
Формат/Информация : Advanced Video Codec
Профиль формата : High@L4.1
Параметр CABAC формата : Да
Параметр ReFrames формата : 7 кадров
Идентификатор кодека : V_MPEG4/ISO/AVC
Продолжительность : 1 ч. 38 м.
Битрейт : 11,7 Мбит/сек
Ширина : 1280 пикселей
Высота : 546 пикселей
Соотношение сторон : 2,35:1
Режим частоты кадров : Постоянный
Частота кадров : 23,976 кадра/сек
Цветовое пространство : YUV
Субдискретизация насыщенности : 4:2:0
Битовая глубина : 8 бит
Тип развёртки : Прогрессивная
Бит/(Пиксели*Кадры) : 0.698
Размер потока : 7,79 Гбайт (70%)
Библиотека кодирования : x264 core 144 r2525 40bb568
Настройки программы : cabac=1 / ref=8 / deblock=1:-2:-1 / analyse=0x3:0x113 / me=umh / subme=11 / psy=1 / psy_rd=1.15:0.00 / mixed_ref=1 / me_range=48 / chroma_me=1 / trellis=2 / 8x8dct=1 / cqm=0 / deadzone=21,11 / fast_pskip=1 / chroma_qp_offset=-2 / threads=6 / lookahead_threads=1 / sliced_threads=0 / nr=0 / decimate=1 / interlaced=0 / bluray_compat=0 / constrained_intra=0 / bframes=14 / b_pyramid=1 / b_adapt=2 / b_bias=0 / direct=3 / weightb=1 / open_gop=0 / weightp=2 / keyint=230 / keyint_min=23 / scenecut=40 / intra_refresh=0 / rc_lookahead=40 / rc=2pass / mbtree=0 / bitrate=11700 / ratetol=1.0 / qcomp=0.60 / qpmin=0 / qpmax=69 / qpstep=4 / cplxblur=20.0 / qblur=0.5 / vbv_maxrate=50000 / vbv_bufsize=62500 / nal_hrd=none / filler=0 / ip_ratio=1.40 / pb_ratio=1.30 / aq=2:1.00
Язык : English
Default : Да
Forced : Нет
Аудио #1
Идентификатор : 2
Формат : DTS
Формат/Информация : Digital Theater Systems
Режим : 16
Параметр Endianness формата : Big
Идентификатор кодека : A_DTS
Продолжительность : 1 ч. 38 м.
Вид битрейта : Постоянный
Битрейт : 1509 Кбит/сек
Каналы : 6 каналов
Расположение каналов : Front: L C R, Side: L R, LFE
Частота : 48,0 КГц
Битовая глубина : 24 бит
Метод сжатия : С потерями
Размер потока : 1,03 Гбайт (9%)
Заголовок : DTS 5.1 @ 1509 kbps - MVO
Язык : Russian
Default : Нет
Forced : Нет
Аудио #2
Идентификатор : 3
Формат : DTS
Формат/Информация : Digital Theater Systems
Режим : 16
Параметр Endianness формата : Big
Идентификатор кодека : A_DTS
Продолжительность : 1 ч. 38 м.
Вид битрейта : Постоянный
Битрейт : 1509 Кбит/сек
Каналы : 6 каналов
Расположение каналов : Front: L C R, Side: L R, LFE
Частота : 48,0 КГц
Битовая глубина : 24 бит
Метод сжатия : С потерями
Размер потока : 1,03 Гбайт (9%)
Заголовок : DTS 5.1 @ 1509 kbps - AVO, Gavrilov
Язык : Russian
Default : Нет
Forced : Нет
Аудио #3
Идентификатор : 4
Формат : DTS
Формат/Информация : Digital Theater Systems
Режим : 16
Параметр Endianness формата : Big
Идентификатор кодека : A_DTS
Продолжительность : 1 ч. 38 м.
Вид битрейта : Постоянный
Битрейт : 1509 Кбит/сек
Каналы : 6 каналов
Расположение каналов : Front: L C R, Side: L R, LFE
Частота : 48,0 КГц
Битовая глубина : 24 бит
Метод сжатия : С потерями
Размер потока : 1,03 Гбайт (9%)
Заголовок : DTS 5.1 @ 1509 kbps - Original
Язык : English
Default : Нет
Forced : Нет
Текст
Идентификатор : 5
Формат : UTF-8
Идентификатор кодека : S_TEXT/UTF8
Идентификатор кодека/Информация : UTF-8 Plain Text
Заголовок : Full
Язык : English
Default : Нет
Forced : Нет
x264 log
x264 [info]: frame I:1106 Avg QP:11.08 size:156051
x264 [info]: frame P:27980 Avg QP:12.88 size: 86943
x264 [info]: frame B:111915 Avg QP:15.02 size: 53561
x264 [info]: consecutive B-frames: 1.7% 2.4% 7.3% 14.0% 10.5% 42.6% 10.3% 2.5% 2.1% 1.5% 1.2% 1.4% 1.0% 0.8% 0.6%
x264 [info]: ref P L0: 46.0% 10.8% 17.5% 9.4% 6.8% 5.2% 4.2% 0.3% 0.0%
x264 [info]: ref B L0: 73.7% 12.2% 6.7% 3.6% 2.6% 1.3%
x264 [info]: ref B L1: 89.8% 10.2%
Source vs Encode Comparison

[url=http://***/forum/viewtopic.php?t=2457883]http://***/forum/viewtopic.php?t=2457883[/url]
Screenshots Цитата:
  • Картинка по сравнению с HDTV не обрезана, по краям наполнение кадра больше. За предоставленный исходник спасибо
Скачать

Скачать торрент!

Как скачивать? · Что такое торрент? · Рейтинг и ограничения

Сайт не распространяет и не хранит электронные версии произведений, а лишь предоставляет доступ к создаваемому пользователями каталогу ссылок на торрент-файлы, которые содержат только списки хеш-сумм

[Профиль] [ЛС]
Показать сообщения:    
Ответить на тему

Текущее время: Сегодня 09:48

Часовой пояс: GMT + 4



Вы не можете начинать темы
Вы не можете отвечать на сообщения
Вы не можете редактировать свои сообщения
Вы не можете удалять свои сообщения
Вы не можете голосовать в опросах
Вы не можете прикреплять файлы к сообщениям
Вы не можете скачивать файлы