Джеймс Браун: Путь наверх / Get on Up (Тейт Тейлор / Tate Taylor) [2014, США, драма, биография, музыка, BDRip 720p] Dub (iTunes) + Sub Eng + Original Eng

Ответить на тему
 
Автор Сообщение

user ®

Стаж: 7 лет 7 месяцев

Сообщений: 20008

Пост Пост: #1 от 24-Фев-2015 17:24

[Цитировать]

Джеймс Браун: Путь наверх / Get on Up
Страна: США
Студия: Imagine Entertainment
Жанр: драма, биография, музыка
Год выпуска: 2014
Продолжительность: 02:18:50
Перевод: Профессиональный (дублированный) iTunes
Cубтитры: английские
Оригинальная аудиодорожка: английский
Режиссер: Тейт Тейлор / Tate Taylor
В ролях: Чэдвик Боузмэн, Нелсан Эллис, Виола Дэвис, Октавия Спенсер, Дэн Эйкройд, Ленни Джеймс, Фред Меламед, Крэйг Робинсон, Джилл Скотт, Джош Хопкинс
Описание: В основу фильма легла невероятная история жизни кумира миллионов, иконы сцены — Джеймса Брауна. Его боготворили не только фанаты, но и музыканты. Он был легендой эпохи — его имя одним из первых включили в Зал славы рок-н-ролла.

Тип релиза: BDRip 720p
Контейнер: MKV
Видео: MPEG-4 AVC, 7801 Кбит/с, 1280x694, 23,976 fps
Аудио: Rus, AC3, 384 kb/s (6 ch), 48 kHz
Аудио 2: Eng, AC3, 640 kb/s (6 ch), 48 kHz
Аудио 3: Eng, AC3, 192 kb/s (2 ch), 48 kHz - Commentary with Director Tate Taylor
Формат субтитров: softsub (SRT)
MediaInfo
Format : Matroska
Format version : Version 4 / Version 2
File size : 8.92 GiB
Duration : 2h 18mn
Overall bit rate : 9 200 Kbps
Movie name : Tonik
Encoded date : UTC 2015-02-23 05:22:02
Writing application : mkvmerge v7.1.0 ('Good Love') 64bit built on Jul 27 2014 13:06:55
Writing library : libebml v1.3.0 + libmatroska v1.4.1
_STATISTICS_WRITING_APP : mkvmerge v7.1.0 ('Good Love') 64bit built on Jul 27 2014 13:06:55
_STATISTICS_WRITING_DATE_UTC : 2015-02-23 05:22:02
_STATISTICS_TAGS : BPS DURATION NUMBER_OF_FRAMES NUMBER_OF_BYTES
DURATION : 02:18:44.640000000
NUMBER_OF_FRAMES : 260145
NUMBER_OF_BYTES : 399582720
Video
ID : 1
Format : AVC
Format/Info : Advanced Video Codec
Format profile : High@L4.1
Format settings, CABAC : Yes
Format settings, ReFrames : 9 frames
Codec ID : V_MPEG4/ISO/AVC
Duration : 2h 18mn
Bit rate : 7 801 Kbps
Width : 1 280 pixels
Height : 694 pixels
Display aspect ratio : 1.85:1
Frame rate mode : Constant
Frame rate : 23.976 fps
Color space : YUV
Chroma subsampling : 4:2:0
Bit depth : 8 bits
Scan type : Progressive
Bits/(Pixel*Frame) : 0.366
Stream size : 7.57 GiB (85%)
Writing library : x264 core 133 r2334 a3ac64b
Encoding settings : cabac=1 / ref=9 / deblock=1:-3:-3 / analyse=0x3:0x133 / me=umh / subme=10 / psy=1 / psy_rd=1.00:0.00 / mixed_ref=1 / me_range=24 / chroma_me=1 / trellis=2 / 8x8dct=1 / cqm=0 / deadzone=21,11 / fast_pskip=0 / chroma_qp_offset=-2 / threads=12 / lookahead_threads=2 / sliced_threads=0 / nr=0 / decimate=0 / interlaced=0 / bluray_compat=0 / constrained_intra=0 / bframes=8 / b_pyramid=2 / b_adapt=2 / b_bias=0 / direct=3 / weightb=1 / open_gop=0 / weightp=2 / keyint=250 / keyint_min=23 / scenecut=40 / intra_refresh=0 / rc_lookahead=60 / rc=crf / mbtree=0 / crf=15.0 / qcomp=0.55 / qpmin=0 / qpmax=69 / qpstep=4 / vbv_maxrate=50000 / vbv_bufsize=62500 / crf_max=0.0 / nal_hrd=none / ip_ratio=1.10 / pb_ratio=1.10 / aq=1:0.60
Language : English
Default : Yes
Forced : No
Matrix coefficients : BT.709
_STATISTICS_WRITING_APP : mkvmerge v7.1.0 ('Good Love') 64bit built on Jul 27 2014 13:06:55
_STATISTICS_WRITING_DATE_UTC : 2015-02-23 05:22:02
_STATISTICS_TAGS : BPS DURATION NUMBER_OF_FRAMES NUMBER_OF_BYTES
DURATION : 02:18:50.281000000
NUMBER_OF_FRAMES : 199727
NUMBER_OF_BYTES : 8311188091
Audio #1
ID : 2
Format : AC-3
Format/Info : Audio Coding 3
Mode extension : CM (complete main)
Format settings, Endianness : Big
Codec ID : A_AC3
Duration : 2h 18mn
Bit rate mode : Constant
Bit rate : 384 Kbps
Channel(s) : 6 channels
Channel positions : Front: L C R, Side: L R, LFE
Sampling rate : 48.0 KHz
Bit depth : 16 bits
Compression mode : Lossy
Stream size : 381 MiB (4%)
Title : iTunes
Language : Russian
Default : Yes
Forced : No
Audio #2
ID : 3
Format : AC-3
Format/Info : Audio Coding 3
Mode extension : CM (complete main)
Format settings, Endianness : Big
Codec ID : A_AC3
Duration : 2h 18mn
Bit rate mode : Constant
Bit rate : 640 Kbps
Channel(s) : 6 channels
Channel positions : Front: L C R, Side: L R, LFE
Sampling rate : 48.0 KHz
Bit depth : 16 bits
Compression mode : Lossy
Stream size : 636 MiB (7%)
Language : English
Default : No
Forced : No
Audio #3
ID : 4
Format : AC-3
Format/Info : Audio Coding 3
Format profile : Dolby Digital
Mode extension : CM (complete main)
Format settings, Endianness : Big
Codec ID : A_AC3
Duration : 2h 18mn
Bit rate mode : Constant
Bit rate : 192 Kbps
Channel(s) : 2 channels
Channel positions : Front: L R
Sampling rate : 48.0 KHz
Bit depth : 16 bits
Compression mode : Lossy
Stream size : 191 MiB (2%)
Title : Commentary with Tate Taylor
Language : English
Default : No
Forced : No
Text
ID : 5
Format : UTF-8
Codec ID : S_TEXT/UTF8
Codec ID/Info : UTF-8 Plain Text
Language : English
Default : No
Forced : No
Menu
00:00:00.000 : en:00:00:00.000
00:06:14.165 : en:00:06:14.165
00:12:15.026 : en:00:12:15.026
00:20:25.015 : en:00:20:25.015
00:28:16.403 : en:00:28:16.403
00:33:14.618 : en:00:33:14.618
00:40:56.204 : en:00:40:56.204
00:46:56.230 : en:00:46:56.230
00:53:33.961 : en:00:53:33.961
00:59:33.487 : en:00:59:33.487
01:05:10.365 : en:01:05:10.365
01:09:50.895 : en:01:09:50.895
01:15:46.834 : en:01:15:46.834
01:22:56.513 : en:01:22:56.513
01:32:55.779 : en:01:32:55.779
01:42:11.125 : en:01:42:11.125
01:50:40.509 : en:01:50:40.509
01:58:14.379 : en:01:58:14.379
02:04:31.506 : en:02:04:31.506
02:10:59.852 : en:02:10:59.852
Скриншоты
Скачать

Скачать торрент!

Как скачивать? · Что такое торрент? · Рейтинг и ограничения

Сайт не распространяет и не хранит электронные версии произведений, а лишь предоставляет доступ к создаваемому пользователями каталогу ссылок на торрент-файлы, которые содержат только списки хеш-сумм

[Профиль] [ЛС]
Показать сообщения:    
Ответить на тему

Текущее время: Сегодня 18:15

Часовой пояс: GMT + 4



Вы не можете начинать темы
Вы не можете отвечать на сообщения
Вы не можете редактировать свои сообщения
Вы не можете удалять свои сообщения
Вы не можете голосовать в опросах
Вы не можете прикреплять файлы к сообщениям
Вы не можете скачивать файлы