Маленький монах / A Little Monk (Чу Гёнджун / Ju Kyung-jung) [2002, Южная Корея, Драма, DVDRemux] VO (FassaD) + Original + Commentary + Sub (rus, eng)

Ответить на тему
 
Автор Сообщение

user ®

Стаж: 13 лет

Сообщений: 15071

Пост Пост: #1 от 24-Фев-2015 00:36

[Цитировать]

Маленький монах / A Little Monk
Страна: Южная Корея
Жанр: Драма
Год выпуска: 2002
Продолжительность: 01:39:32
Перевод: Одноголосый закадровый (FassaD)
Перевод 2: Субтитры английские
Cубтитры: русские
Оригинальная аудиодорожка: корейский
Оригинальная аудиодорожка 2: корейский (комментарий режиссера)
Режиссер: Чу Гёнджун / Ju Kyung-jung
В ролях: Ким Тэджин, Ким Йерён , Ким Мингё , О Онсу, Чон Мусон, Ким Бомдэ, Ю Йонджи
Описание: По мотивам рассказа Хам Седока "Маленький монах". В буддийском монастыре осталось только три монаха: старый настоятель, юноша Чонсим и маленький мальчик Тонъём. Мальчик никогда не видел своей матери, он никогда не ходил в школу, он завидует детям, у которых есть родители. В юном Чонсим пробуждается жажда любви. Старый монах пытается спасти их обоих от соблазнов большого мира и от злой кармы.
Фильм вызывает сложные чувства. Пленительная красота природы, естественная смена времен года, обаяние детской улыбки сочетаются в нём с жестокостью, несправедливостью, обманом, предательством. Неоднозначный конец оставляет зрителя в растерянности.
Сэмпл: http://sendfile.su/1088481
Качество видео: DVDRemux
Формат видео: MPEG-TS
Видео: MPEG2, 720x480, 16:9, 29.970 fps, vbr 5395 kbps, TFF
Аудио: AC3, 48.0 KHz, 192 Kbps, 2 ch, Русский
Аудио 2: AC3, 48.0 KHz, 448 Kbps, 6 ch, Корейский
Аудио 3: AC3, 48.0 KHz, 192 Kbps, 2 ch, Корейский, комментарий режиссера
Субтитры: softsub (SRT): русский, английский
MediaInfo
General
ID : 1 (0x1)
Complete name : I:\DHARMA\FILMS\Маленький_монах_2002\Маленький_монах_2002_Mpeg2\Маленький_монах_2002_Mpeg2.ts
Format : MPEG-TS
File size : 4.56 GiB
Duration : 1h 39mn
Overall bit rate mode : Variable
Overall bit rate : 6 560 Kbps
Maximum Overall bit rate : 35.5 Mbps
Video
ID : 4113 (0x1011)
Menu ID : 1 (0x1)
Format : MPEG Video
Format version : Version 2
Format profile : Main@Main
Format settings, BVOP : Yes
Format settings, Matrix : Custom
Format settings, GOP : M=3, N=12
Codec ID : 2
Duration : 1h 39mn
Bit rate mode : Variable
Bit rate : 5 395 Kbps
Maximum bit rate : 9 160 Kbps
Width : 720 pixels
Height : 480 pixels
Display aspect ratio : 16:9
Frame rate : 29.970 fps
Standard : NTSC
Color space : YUV
Chroma subsampling : 4:2:0
Bit depth : 8 bits
Scan type : Interlaced
Scan order : Top Field First
Compression mode : Lossy
Bits/(Pixel*Frame) : 0.521
Stream size : 3.75 GiB (82%)
Audio #1
ID : 4352 (0x1100)
Menu ID : 1 (0x1)
Format : AC-3
Format/Info : Audio Coding 3
Mode extension : CM (complete main)
Format settings, Endianness : Big
Codec ID : 129
Duration : 1h 39mn
Bit rate mode : Constant
Bit rate : 192 Kbps
Channel(s) : 2 channels
Channel positions : Front: L R
Sampling rate : 48.0 KHz
Bit depth : 16 bits
Compression mode : Lossy
Delay relative to video : 3ms
Stream size : 137 MiB (3%)
Language : Russian
Audio #2
ID : 4353 (0x1101)
Menu ID : 1 (0x1)
Format : AC-3
Format/Info : Audio Coding 3
Mode extension : CM (complete main)
Format settings, Endianness : Big
Codec ID : 129
Duration : 1h 39mn
Bit rate mode : Constant
Bit rate : 448 Kbps
Channel(s) : 6 channels
Channel positions : Front: L C R, Side: L R, LFE
Sampling rate : 48.0 KHz
Bit depth : 16 bits
Compression mode : Lossy
Delay relative to video : 9ms
Stream size : 319 MiB (7%)
Language : Korean
Audio #3
ID : 4354 (0x1102)
Menu ID : 1 (0x1)
Format : AC-3
Format/Info : Audio Coding 3
Mode extension : CM (complete main)
Format settings, Endianness : Big
Codec ID : 129
Duration : 1h 39mn
Bit rate mode : Constant
Bit rate : 192 Kbps
Channel(s) : 2 channels
Channel positions : Front: L R
Sampling rate : 48.0 KHz
Bit depth : 16 bits
Compression mode : Lossy
Delay relative to video : 9ms
Stream size : 137 MiB (3%)
Language : Korean
Скриншот c названием фильма Скриншоты
Скачать

Скачать торрент! Маленький монах / A Little Monk (Чу Гёнджун / Ju Kyung-jung) [2002, Южная Корея, Драма, DVDRemux] VO (FassaD) + Original + Commentary + Sub (rus, eng)

Как скачивать? · Что такое торрент? · Рейтинг и ограничения

Сайт не распространяет и не хранит электронные версии произведений, а лишь предоставляет доступ к создаваемому пользователями каталогу ссылок на торрент-файлы, которые содержат только списки хеш-сумм

[Профиль] [ЛС]
Показать сообщения:    
Ответить на тему

Текущее время: Сегодня 21:40

Часовой пояс: GMT + 4



Вы не можете начинать темы
Вы не можете отвечать на сообщения
Вы не можете редактировать свои сообщения
Вы не можете удалять свои сообщения
Вы не можете голосовать в опросах
Вы не можете прикреплять файлы к сообщениям
Вы не можете скачивать файлы