Друг 2 / Chingu 2 / Friend: The Great Legacy / Chingoo 2 / Friend 2 (Квак Кён Тхэк / Kyung-Taek Kwak) [2013, США, Южная Корея, боевик, драма, HDRip] 2x DVO + original Kor + Sub (rus, eng)

Ответить на тему
 
Автор Сообщение

user ®

Стаж: 13 лет

Сообщений: 15071

Пост Пост: #1 от 23-Фев-2015 04:51

[Цитировать]

Друг 2 / Chingu 2 / Friend: The Great Legacy / Chingoo 2 / Friend 2- -Страна: США, Южная Корея
Жанр: боевик, драма
Год выпуска: 2013
Продолжительность: 02:01:07-Перевод: Любительский (двухголосый закадровый) [GREEN TEA]
Перевод: Любительский (двухголосый закадровый) [Animelur]-Cубтитры: русские (ФСГ 'Мания', FSG Black pearl) (ASS), английские (SRT) - отдельно
Оригинальная аудиодорожка: корейский
Режиссер: Квак Кён Тхэк / Kyung-Taek Kwak
В ролях: Ю О Сон, Чу Чжин Мо, Ким У Бин, Su-ah Han, Кан Ханна, Чан Ён Нам, Чон Хо Бин, Сын-хён Джи, Ah-in Park, Мин Чжи Хёк...
Описание: Чжун Сок и Дон Су были друзьями с детства. Но судьба распорядилась так, что они стали членами двух враждующих бандитских группировок. Их банды вовлечены в борьбу за власть. Дон Су жестоко убивают и обставляют дело так, будто заказчиком убийства был Чжун Сок, который берет на себя вину за смерть друга, потому что чувствует себя виноватым, что не смог предотвратить это убийство. Его приговаривают к 18 годам тюрьмы. У Дон Су остается маленький сын Сон Хон, который став взрослым, попадает в тюрьму, где знакомится с Чжун Соком, которым начинает восхищаться. А после освобождения из тюрьмы Чжун Сок берет парня к себе в банду и делает его своей правой рукой. Однако всё меняется когда, Сон Хон узнает, что Чжун Сок имеет отношение к смерти его отца…
Релиз от - & & Animelur
Сэмпл: http://multi-up.com/1034306
Качество видео: HDRip
Формат видео: AVI
Видео: MPEG-4 Visual at 1739 Кбит/сек; 704 x 384 (1.833) at 23.976 fps
Аудио: AC-3 at 192 Кбит/сек; 2 канала, 48,0 КГц [DVO]
Аудио: AC-3 at 192 Кбит/сек; 2 канала, 48,0 КГц [DVO]
Аудио: AC-3 at 448 Кбит/сек; 6 каналов, 48,0 КГц [Kor]
Автор -
MediaInfo
Общее
Полное имя : D:\Фильмы\Азиатские\Друг 2\Friend.The Great Legacy.2013.HDRip.XviD.2200MB. rip by [Assassin's Creed]\Friend.The Great Legacy.2013.HDRip.XviD.2200MB. rip by [Assassin's Creed].avi
Формат : AVI
Формат/Информация : Audio Video Interleave
Профиль формата : OpenDML
Размер файла : 2,19 Гбайт
Продолжительность : 2 ч. 1 м.
Общий поток : 2594 Кбит/сек
Программа кодирования : VirtualDubMod 1.5.10.3 | www.virtualdub-fr.org || (build 2550/release)
Библиотека кодирования : VirtualDubMod build 2550/release
Видео
Идентификатор : 0
Формат : MPEG-4 Visual
Профиль формата : Advanced Simple@L5
Параметр BVOP формата : 1
Параметр QPel формата : Нет
Параметр GMC формата : Без точки перехода
Параметр матрицы формата : Default (MPEG)
Идентификатор кодека : XVID
Идентификатор кодека/Подсказка : XviD
Продолжительность : 2 ч. 1 м.
Битрейт : 1739 Кбит/сек
Ширина : 704 пикселя
Высота : 384 пикселя
Соотношение сторон : 1,85:1
Частота кадров : 23,976 кадра/сек
Цветовое пространство : YUV
Субдискретизация насыщенности : 4:2:0
Битовая глубина : 8 бит
Тип развёртки : Прогрессивная
Метод сжатия : С потерями
Бит/(Пиксели*Кадры) : 0.268
Размер потока : 1,47 Гбайт (67%)
Библиотека кодирования : XviD 1.2.1 (UTC 2008-12-04)
Аудио #1
Идентификатор : 1
Формат : AC-3
Формат/Информация : Audio Coding 3
Расширение режима : CM (complete main)
Параметр Endianness формата : Big
Идентификатор кодека : 2000
Продолжительность : 2 ч. 1 м.
Вид битрейта : Постоянный
Битрейт : 192 Кбит/сек
Каналы : 2 канала
Расположение каналов : Front: L R
Частота : 48,0 КГц
Битовая глубина : 16 бит
Метод сжатия : С потерями
Размер потока : 166 Мбайт (7%)
Выравнивание : Разделение по промежуткам
Продолжительность промежутка : 42 мс. (1,00 видеокадр)
Время предзагрузки промежутка : 500 мс.
Аудио #2
Идентификатор : 2
Формат : AC-3
Формат/Информация : Audio Coding 3
Расширение режима : CM (complete main)
Параметр Endianness формата : Big
Идентификатор кодека : 2000
Продолжительность : 2 ч. 1 м.
Вид битрейта : Постоянный
Битрейт : 192 Кбит/сек
Каналы : 2 канала
Расположение каналов : Front: L R
Частота : 48,0 КГц
Битовая глубина : 16 бит
Метод сжатия : С потерями
Размер потока : 166 Мбайт (7%)
Выравнивание : Разделение по промежуткам
Продолжительность промежутка : 42 мс. (1,00 видеокадр)
Время предзагрузки промежутка : 500 мс.
Аудио #3
Идентификатор : 3
Формат : AC-3
Формат/Информация : Audio Coding 3
Расширение режима : CM (complete main)
Параметр Endianness формата : Big
Идентификатор кодека : 2000
Продолжительность : 2 ч. 1 м.
Вид битрейта : Постоянный
Битрейт : 448 Кбит/сек
Каналы : 6 каналов
Расположение каналов : Front: L C R, Side: L R, LFE
Частота : 48,0 КГц
Битовая глубина : 16 бит
Метод сжатия : С потерями
Размер потока : 388 Мбайт (17%)
Выравнивание : Разделение по промежуткам
Продолжительность промежутка : 42 мс. (1,00 видеокадр)
Время предзагрузки промежутка : 500 мс.
Общее
Полное имя : D:\Фильмы\Азиатские\Друг 2\Friend.The Great Legacy.2013.HDRip.XviD.2200MB. rip by [Assassin's Creed]\Friend.The Great Legacy.2013.HDRip.XviD.2200MB. rip by [Assassin's Creed].eng.srt
Формат : SubRip
Размер файла : 67,9 Кбайт
Текст
Формат : SubRip
Метод сжатия : Без потерь
Общее
Полное имя : D:\Фильмы\Азиатские\Друг 2\Friend.The Great Legacy.2013.HDRip.XviD.2200MB. rip by [Assassin's Creed]\Friend.The Great Legacy.2013.HDRip.XviD.2200MB. rip by [FSG Black pearl].rus.ass
Размер файла : 98,4 Кбайт
Общее
Полное имя : D:\Фильмы\Азиатские\Друг 2\Friend.The Great Legacy.2013.HDRip.XviD.2200MB. rip by [Assassin's Creed]\Friend.The Great Legacy.2013.HDRip.XviD.2200MB. rip by [ФСГ 'Мания'].rus.ass
Размер файла : 133 Кбайт
Скриншот c названием фильма Скриншоты
Скачать

Скачать торрент! Друг 2 / Chingu 2 / Friend: The Great Legacy / Chingoo 2 / Friend 2 (Квак Кён Тхэк / Kyung-Taek Kwak) [2013, США, Южная Корея, боевик, драма, HDRip] 2x DVO + original Kor + Sub (rus, eng)

Как скачивать? · Что такое торрент? · Рейтинг и ограничения

Сайт не распространяет и не хранит электронные версии произведений, а лишь предоставляет доступ к создаваемому пользователями каталогу ссылок на торрент-файлы, которые содержат только списки хеш-сумм

[Профиль] [ЛС]
Показать сообщения:    
Ответить на тему

Текущее время: Сегодня 11:04

Часовой пояс: GMT + 4



Вы не можете начинать темы
Вы не можете отвечать на сообщения
Вы не можете редактировать свои сообщения
Вы не можете удалять свои сообщения
Вы не можете голосовать в опросах
Вы не можете прикреплять файлы к сообщениям
Вы не можете скачивать файлы