M.B. / М.Даблю / M.W. / MW (Ивамото Хитоси / Iwamoto Hitoshi) [2009, Япония, Драма, триллер, DVDRip] VO (sergik1)

Ответить на тему
 
Автор Сообщение

user ®

Стаж: 13 лет

Сообщений: 15071

Пост Пост: #1 от 23-Фев-2015 04:51

[Цитировать]

M.B. / М.Даблю / M.W. / MW
Страна: Япония
Жанр: Драма, триллер
Год выпуска: 2009
Продолжительность: 02:09:52
Перевод: Одноголосый закадровый sergik1
Cубтитры: нет
Режиссер: Ивамото Хитоси / Iwamoto Hitoshi
В ролях: Тамаки Хироси, Ямада Такаюки, Исибаси Рё, Исида Юрико, Ямамото Юсукэ, Ямасита Рио
Описание: Фильм основан на одноименной манге Осамы Тэдзуки. После утечки смертоносного газа "MW" на одном из отдаленных японских островов, в живых остались только 2 мальчика. Прошло 16 лет, один стал священником, а другой хладнокровным убийцей, который хочет отомстить всем ответственным за тот инцидент...
Доп. информация: Исходное видео взято отсюда [url=http://***/forum/viewtopic.php?t=4285334]http://***/forum/viewtopic.php?t=4285334[/url]
Сэмпл: http://multi-up.com/1034412
Качество видео: DVDRip
Формат видео: AVI
Видео: XVID, 640x272, 2.35:1, 23.976 fps, 1456 kbps (для cd1), XVID, 640x272, 2.35:1, 23.976 fps, 1093 kbps (для cd2)
Аудио: AC3, 48 kHz, 192.0 kbit, 2 (L,R)
Аудио 2: AC3, 48 kHz, 192.0 kbit, 2 (L,R)
MediaInfo
Complete name: C:\Users\Пользователь\Desktop\M.W\MW1.avi
Format: AVI
Format/Info: Audio Video Interleave
File size: 597 MiB
Duration: 57mn 18s
Overall bit rate: 1 456 Kbps
Writing application: VirtualDubMod 1.5.10.2 (build 2540/release)
Writing library: VirtualDubMod build 2540/release
ID: 0
Format: MPEG-4 Visual
Format profile: Simple@L3
Format settings, BVOP: 3
Format settings, QPel: No
Format settings, GMC: No warppoints
Format settings, Matrix: Default (MPEG)
Muxing mode: Packed bitstream
Codec ID: XVID
Codec ID/Hint: XviD
Duration: 57mn 18s
ID: 1
Format: AC-3
Format/Info: Audio Coding 3
Mode extension: CM (complete main)
Format settings, Endianness: Big
Codec ID: 2000
Duration: 57mn 18s
Bit rate mode: Constant
Bit rate: 192 Kbps
Channel(s): 2 channels
Channel positions: Front: L R
Sampling rate: 48.0 KHz
Bit depth: 16 bits
Для cd2. Complete name: C:\Users\Пользователь\Desktop\M.W\MW2.avi
Format: AVI
Format/Info: Audio Video Interleave
File size: 566 MiB
Duration: 1h 12mn
Overall bit rate: 1 093 Kbps
Writing application: VirtualDubMod 1.5.10.2 (build 2540/release)
Writing library: VirtualDubMod build 2540/release
ID: 0
Format: MPEG-4 Visual
Format profile: Simple@L3
Format settings, BVOP: 2
Format settings, QPel: No
Format settings, GMC: No warppoints
Format settings, Matrix: Default (MPEG)
Muxing mode: Packed bitstream
Codec ID: XVID
Codec ID/Hint: XviD
Duration: 1h 12mn
Bit rate: 892 Kbps
Width: 640 pixels
Height: 272 pixels
Display aspect ratio: 2.35:1
Frame rate: 23.976 fps
Color space: YUV
Chroma subsampling: 4:2:0
Bit depth: 8 bits
Scan type: Progressive
Compression mode: Lossy
Bits/(Pixel*Frame): 0.214
Stream size: 462 MiB (82%)
Writing library: XviD 1.0.3 (UTC 2004-12-20)
ID: 1
Format: AC-3
Format/Info: Audio Coding 3
Mode extension: CM (complete main)
Format settings, Endianness: Big
Codec ID: 2000
Duration: 1h 12mn
Bit rate mode: Constant
Bit rate: 192 Kbps
Channel(s): 2 channels
Channel positions: Front: L R
Sampling rate: 48.0 KHz
Bit depth: 16 bits
Compression mode: Lossy
Stream size: 99.4 MiB (18%)
Alignment: Split accross interleaves
Interleave, duration: 42 ms (1.00 video frame)
Interleave, preload duration: 500 ms
Скриншот c названием фильма Скриншоты
Скачать

Скачать торрент! M.B. / М.Даблю / M.W. / MW (Ивамото Хитоси / Iwamoto Hitoshi) [2009, Япония, Драма, триллер, DVDRip] VO (sergik1)

Как скачивать? · Что такое торрент? · Рейтинг и ограничения

Сайт не распространяет и не хранит электронные версии произведений, а лишь предоставляет доступ к создаваемому пользователями каталогу ссылок на торрент-файлы, которые содержат только списки хеш-сумм

[Профиль] [ЛС]
Показать сообщения:    
Ответить на тему

Текущее время: Сегодня 16:59

Часовой пояс: GMT + 4



Вы не можете начинать темы
Вы не можете отвечать на сообщения
Вы не можете редактировать свои сообщения
Вы не можете удалять свои сообщения
Вы не можете голосовать в опросах
Вы не можете прикреплять файлы к сообщениям
Вы не можете скачивать файлы