Синий зонтик / Голубой зонтик / The Blue Umbrella (Вишал Бхарадвадж / Vishal Bhardwaj) [2005, Индия, Драма, семейный, HDRip] MVO (Red Media)

Ответить на тему
 
Автор Сообщение

user ®

Стаж: 12 лет

Сообщений: 15092

Пост Пост: #1 от 23-Фев-2015 04:51

[Цитировать]

Синий зонтик / Голубой зонтик / The Blue Umbrella
Страна: Индия
Жанр: Драма, семейный
Год выпуска: 2005
Продолжительность: 01:34:00
Перевод: Профессиональный (многоголосый закадровый) Red Media
Cубтитры: нет
Режиссер: Вишал Бхарадвадж / Vishal Bhardwaj
В ролях: Панкадж Капур, Шрия Шарма, Дипак Добриял, Рахул Кумар, Урмила, Камал
Описание: Маленькая деревенская девочка Бинья обменивает своё ожерелье на синий зонтик. Обычный синий зонтик, который становится объектом зависти владельца старого разваливающегося магазинчика. Он готов на всё, чтобы заполучить этот зонтик.. даже на то, чтобы украсть.
В 2006 году фильм получил национальную награду "National Film Award" в номинации "Best Children's Film".
Мировая премьера: 12 октября 2005 года, Южная Корея, Международный кинофестиваль в Пусане.
В Индии фильм был представлен публике лишь 10 августа 2007 года.
Доп. информация: Исходник BDRip (1080p) (СПАСИБО! jasinpapa)
За звук спасибо: soso4eg
Сведение звука: oktober (Спасибо!)
Сэмпл: http://multi-up.com/1034255
Качество видео: HDRip
Формат видео: AVI
Видео: XviD build 50, 720x304 (2.37:1), 24 fps, 1941 kbps avg
Аудио: MPEG Layer 3, 44.100 kHz, 2/0 (L,R) ch, 128.00 kbps avg
MediaInfo
General
Complete name : D:\Siniy.Zontik.2005.XviD.HDRip-Dego.avi
Format : AVI
Format/Info : Audio Video Interleave
File size : 1.37 GiB
Duration : 1h 34mn
Overall bit rate : 2 079 Kbps
Writing application : VirtualDubMod 1.5.10.2 (build 2540/release)
Writing library : VirtualDubMod build 2540/release
Video
ID : 0
Format : MPEG-4 Visual
Format profile : AdvancedSimple@L5
Format settings, BVOP : Yes
Format settings, QPel : No
Format settings, GMC : No warppoints
Format settings, Matrix : Custom
Codec ID : XVID
Codec ID/Hint : XviD
Duration : 1h 34mn
Bit rate : 1 942 Kbps
Width : 720 pixels
Height : 304 pixels
Display aspect ratio : 2.35
Frame rate : 24.000 fps
Resolution : 24 bits
Colorimetry : 4:2:0
Scan type : Progressive
Bits/(Pixel*Frame) : 0.370
Stream size : 1.28 GiB (93%)
Writing library : XviD 1.2.1 (UTC 2008-12-04)
Audio
ID : 1
Format : MPEG Audio
Format version : Version 1
Format profile : Layer 3
Codec ID : 55
Codec ID/Hint : MP3
Duration : 1h 34mn
Bit rate mode : Constant
Bit rate : 128 Kbps
Channel(s) : 2 channels
Sampling rate : 44.1 KHz
Resolution : 16 bits
Stream size : 86.1 MiB (6%)
Alignment : Split accross interleaves
Interleave, duration : 42 ms (1.00 video frame)
Interleave, preload duration : 500 ms
Скриншоты
Скачать

Скачать торрент! Синий зонтик / Голубой зонтик / The Blue Umbrella (Вишал Бхарадвадж / Vishal Bhardwaj) [2005, Индия, Драма, семейный, HDRip] MVO (Red Media)

Как скачивать? · Что такое торрент? · Рейтинг и ограничения

Сайт не распространяет и не хранит электронные версии произведений, а лишь предоставляет доступ к создаваемому пользователями каталогу ссылок на торрент-файлы, которые содержат только списки хеш-сумм

[Профиль] [ЛС]
Показать сообщения:    
Ответить на тему

Текущее время: Сегодня 05:27

Часовой пояс: GMT + 4



Вы не можете начинать темы
Вы не можете отвечать на сообщения
Вы не можете редактировать свои сообщения
Вы не можете удалять свои сообщения
Вы не можете голосовать в опросах
Вы не можете прикреплять файлы к сообщениям
Вы не можете скачивать файлы