Братья по духу / Christian Brothers (Джоши / Joshi) [2011, Индия, Комедия, боевик, триллер, драма, DVDRip-AVC] MVO (Red Media)

Ответить на тему
 
Автор Сообщение

user ®

Стаж: 12 лет

Сообщений: 15092

Пост Пост: #1 от 23-Фев-2015 04:51

[Цитировать]

Братья по духу / Christian Brothers
Страна: Индия
Жанр: Комедия, боевик, триллер, драма
Год выпуска: 2011
Продолжительность: 03:00:31
Перевод: Профессиональный (многоголосый закадровый) Red Media
Cубтитры: нет
Режиссер: Джоши / Joshi
В ролях: Моханлал, Лакшми Рай, Суреш Гопи, Саратх Кумар, Дилип, Кавья Мадхаван, Каника, Джагатхи Шрикумар, Биджу Менон, Суреш Кришна, Деван, Салим Кумар, Ананд
Описание: Фильм о семье отставного капитана индийской армии, состоятельного члена христианской общины Варгхесе Маппила и его четырех детях: Кристи, Джоджи, Джесси и Стелле. Кристи втайне от всех работает полицейским осведомителем в Мумбае, а Джоджи отправляется в Италию, изучать богословие, но влюбляется в Минакши, дочь министра внутренних дел, и бросает учебу. Капитан и вся семья не имеют никакого представления, чем занимается Кристи, но однажды все вскрывается и отец выгоняет его из дома. Роман Джоджи и Минакши быстро развивается, но ее родители узнают об этом и увозят домой. По дороге Минакши похищают…
Доп. информация: Релиз: Кинозал
Сведение звука: oktober (Спасибо!)
Сэмпл: http://multi-up.com/1034275
Качество видео: DVDRip-AVC
Формат видео: MKV
Видео: 720x320 (2.250:1), 23.976 fps, AVC, ~ 1012 Kbps, 0.183 bits/pixel
Аудио: Русский, 48.0 KHz, АС3, 2 ch, 128 Kbps
MediaInfo
General
Complete name : F:\Bratya.Po.Duhu.2011.DVDRip.X264.oktober.mkv
Format : Matroska
File size : 1.47 GiB
Duration : 3h 0mn
Overall bit rate : 1 163 Kbps
Encoded date : UTC 2015-02-04 06:59:50
Writing application : mkvmerge v5.0.0 ('Die Wahre Liebe') built on Sep 25 2011 20:33:49
Writing library : libebml v1.2.2 + libmatroska v1.3.0
Video
ID : 1
Format : AVC
Format/Info : Advanced Video Codec
Format profile : High@L3.0
Format settings, CABAC : Yes
Format settings, ReFrames : 5 frames
Muxing mode : Container profile=Unknown@3.0
Codec ID : V_MPEG4/ISO/AVC
Duration : 3h 0mn
Bit rate : 1 012 Kbps
Nominal bit rate : 1 030 Kbps
Width : 720 pixels
Height : 320 pixels
Display aspect ratio : 2.25
Frame rate : 23.976 fps
Resolution : 24 bits
Colorimetry : 4:2:0
Scan type : Progressive
Bits/(Pixel*Frame) : 0.183
Stream size : 1.28 GiB (87%)
Writing library : x264 core 125 r2200 999b753
Encoding settings : cabac=1 / ref=5 / deblock=1:-1:-1 / analyse=0x3:0x113 / me=umh / subme=8 / psy=1 / psy_rd=1.00:0.10 / mixed_ref=1 / me_range=16 / chroma_me=1 / trellis=1 / 8x8dct=1 / cqm=0 / deadzone=21,11 / fast_pskip=1 / chroma_qp_offset=-3 / threads=6 / lookahead_threads=1 / sliced_threads=0 / nr=0 / decimate=1 / interlaced=0 / bluray_compat=0 / constrained_intra=0 / bframes=3 / b_pyramid=2 / b_adapt=2 / b_bias=0 / direct=3 / weightb=1 / open_gop=0 / weightp=2 / keyint=250 / keyint_min=23 / scenecut=40 / intra_refresh=0 / rc_lookahead=50 / rc=abr / mbtree=1 / bitrate=1030 / ratetol=1.0 / qcomp=0.60 / qpmin=0 / qpmax=69 / qpstep=4 / ip_ratio=1.40 / aq=1:1.00
Language : Russian
Audio
ID : 2
Format : AC-3
Format/Info : Audio Coding 3
Codec ID : A_AC3
Duration : 3h 0mn
Bit rate mode : Constant
Bit rate : 128 Kbps
Channel(s) : 2 channels
Channel positions : L R
Sampling rate : 48.0 KHz
Stream size : 165 MiB (11%)
Language : Russian
Скриншоты
Скачать

Скачать торрент! Братья по духу / Christian Brothers (Джоши / Joshi) [2011, Индия, Комедия, боевик, триллер, драма, DVDRip-AVC] MVO (Red Media)

Как скачивать? · Что такое торрент? · Рейтинг и ограничения

Сайт не распространяет и не хранит электронные версии произведений, а лишь предоставляет доступ к создаваемому пользователями каталогу ссылок на торрент-файлы, которые содержат только списки хеш-сумм

[Профиль] [ЛС]
Показать сообщения:    
Ответить на тему

Текущее время: Сегодня 19:35

Часовой пояс: GMT + 4



Вы не можете начинать темы
Вы не можете отвечать на сообщения
Вы не можете редактировать свои сообщения
Вы не можете удалять свои сообщения
Вы не можете голосовать в опросах
Вы не можете прикреплять файлы к сообщениям
Вы не можете скачивать файлы