Если любишь - прости (Ольга Доброва-Куликова) [2013, Россия, Мелодрама, HDTVRip]

Ответить на тему
 
Автор Сообщение

user ®

Стаж: 7 лет 7 месяцев

Сообщений: 20008

Пост Пост: #1 от 22-Фев-2015 22:15

[Цитировать]

Если любишь - прости
Год выпуска: 2013
Производство: Группа компаний «GP»
Жанр: Мелодрама
Продолжительность: 01:30:14
Субтитры: нет
Режиссёр: Ольга Доброва-Куликова
В ролях: Любовь Толкалина, Егор Бероев, Светлана Иванова, Илья Любимов, Дмитрий Фрид, Альберт Филозов, Наталья Бардо, Виктория Райкова, Павел Шумский, Максим Михалёв
Описание: Судья Юлия Гуляева и её муж шеф-повар Эдик отмечают десятилетний юбилей свадьбы. Заглянув на кухню в разгар торжества, Юлия застает Эдика с официанткой Аней в тот самый момент, когда они выясняют отнюдь не производственные отношения. Эдик умоляет Юлю о прощении: с Аней у него ничего серьезного. Но Юля - бескомпромиссный судья, в личной жизни еще более категорична. Теперь все надежды Эдика на Дашу - младшую сестру Юли, которая берется помочь вернуть его в семью...

Качество: HDTVRip
Формат: AVI
Видео: 720x400 (1.80:1), 25 fps, XviD build 73 ~1798 kbps avg, 0.25 bit/pixel
Аудио: 48 kHz, AC3 Dolby Digital, 2/0 (L,R) ch, ~192 kbps
Сторонней рекламы нет!
MediaInfo
Общее
Полное имя : F:\Esli ljubish' prosti.HDTVRip.GeneralFilm.avi
Формат : AVI
Формат/Информация : Audio Video Interleave
Размер файла : 1,43 Гбайт
Продолжительность : 1 ч. 42 м.
Общий поток : 2000 Кбит/сек
Программа кодирования : VirtualDubMod 1.5.10.3 | www.virtualdub-fr.org || (build 2550/release)
Библиотека кодирования : VirtualDub build 32507/release
Видео
Идентификатор : 0
Формат : MPEG-4 Visual
Профиль формата : Advanced Simple@L5
Параметр BVOP формата : 1
Параметр QPel формата : Нет
Параметр GMC формата : Без точки перехода
Параметр матрицы формата : Выборочная
Идентификатор кодека : XVID
Идентификатор кодека/Подсказка : XviD
Продолжительность : 1 ч. 42 м.
Битрейт : 1799 Кбит/сек
Ширина : 720 пикс.
Высота : 400 пикс.
Соотношение сторон : 16:9
Частота кадров : 25,000 кадр/сек
Цветовое пространство : YUV
Подвыборка цветности : 4:2:0
Битовая глубина : 8 бит
Тип развёртки : Прогрессивная
Метод сжатия : С потерями
Бит/(Пиксели*Кадры) : 0.250
Размер потока : 1,28 Гбайт (90%)
Библиотека кодирования : XviD 73
Аудио
Идентификатор : 1
Формат : AC-3
Формат/Информация : Audio Coding 3
Расширение режима : CM (complete main)
Идентификатор кодека : 2000
Продолжительность : 1 ч. 42 м.
Вид битрейта : Постоянный
Битрейт : 192 Кбит/сек
Каналы : 2 канала
Расположение каналов : Front: L R
Частота : 48,0 КГц
Битовая глубина : 16 бит
Метод сжатия : С потерями
Размер потока : 140 Мбайт (10%)
Выравнивание : Разделение по промежуткам
Продолжительность промежутка : 40 мс. (1,00 видеокадр)
Время предзагрузки промежутка : 500 ms
Раздача группы:
Отдельное спасибо за предоставление материала.
Релиз:
Отдельная громадная благодарность Media-Art-Club за созданный постер к раздаче.
Скриншот c названием фильма Скриншоты
Скачать

Скачать торрент!

Как скачивать? · Что такое торрент? · Рейтинг и ограничения

Сайт не распространяет и не хранит электронные версии произведений, а лишь предоставляет доступ к создаваемому пользователями каталогу ссылок на торрент-файлы, которые содержат только списки хеш-сумм

[Профиль] [ЛС]
Показать сообщения:    
Ответить на тему

Текущее время: Сегодня 15:54

Часовой пояс: GMT + 4



Вы не можете начинать темы
Вы не можете отвечать на сообщения
Вы не можете редактировать свои сообщения
Вы не можете удалять свои сообщения
Вы не можете голосовать в опросах
Вы не можете прикреплять файлы к сообщениям
Вы не можете скачивать файлы