Неуправляемый / Unstoppable (Тони Скотт / Tony Scott) [2010, США, боевик, триллер, драма, HDTV 1080i] MVO (1 канал)

Ответить на тему
 
Автор Сообщение

user ®

Стаж: 8 лет 2 месяца

Сообщений: 20008

Пост Пост: #1 от 22-Фев-2015 12:21

[Цитировать]

Неуправляемый / Unstoppable
Страна: США
Жанр: боевик, триллер, драма
Год выпуска: 2010
Продолжительность: 01:30:36
Перевод: Профессиональный (многоголосый закадровый) 1 канал
Cубтитры: нет
Оригинальная аудиодорожка: нет
Режиссер: Тони Скотт / Tony Scott
В ролях: Дензел Вашингтон, Крис Пайн, Розарио Доусон, Этан Сапли, Кевин Данн, Кевин Корригэн, Кевин Чэпмен, Лью Темпл, ТиДжей Миллер, Джесси Шрэм
Описание: Потерявший управление огромный беспилотный локомотив с токсичным грузом несется, сметая все на своем пути. Но главная опасность состоит в том, что если он сойдет с рельсов на очередном вираже, химической катастрофы не избежать. Все силы задействованы, все попытки остановить монстра тщетны, планов на спасение не осталось. Впрочем...
Доп. информация: HDTV и BD имеют разное наполнение кадра:
Сравнение
BD....................................HDTV


Сэмпл: https://yadi.sk/i/NFK9qlmzepC4q
Тип релиза: HDTV 1080i
Контейнер: TS
Видео: AVC, 1920x1080 (16/9), 25.000 fps, 14.2 Mbps (0.274 bit/pixel)
Аудио: MP2, 48.0 KHz, 2 ch, 192 Kbps, CBR (Russian)
MediaInfo
Общее
Идентификатор : 3 (0x3)
Полное имя : K:\Неуправляемый.ts
Формат : MPEG-TS
Размер файла : 9,80 Гбайт
Продолжительность : 1 ч. 30 м.
Режим общего битрейта : Переменный
Общий поток : 15,5 Мбит/сек
Видео
Идентификатор : 2141 (0x85D)
Идентификатор меню : 21004 (0x520C)
Формат : AVC
Формат/Информация : Advanced Video Codec
Профиль формата : Main@L4.0
Параметр CABAC формата : Да
Параметр ReFrames формата : 3 кадра
Идентификатор кодека : 27
Продолжительность : 1 ч. 30 м.
Битрейт : 14,5 Мбит/сек
Ширина : 1920 пикселей
Высота : 1080 пикселей
Соотношение сторон : 16:9
Частота кадров : 25,000 кадров/сек
Стандарт вещания : Component
Цветовое пространство : YUV
Субдискретизация насыщенности : 4:2:0
Битовая глубина : 8 бит
Тип развёртки : Чересстрочная
Порядок развёртки : Верхнее поле первое
Бит/(Пиксели*Кадры) : 0.280
Размер потока : 9,19 Гбайт (94%)
Основные цвета : BT.709
Характеристики трансфера : BT.709
Коэффициенты матрицы : BT.709
Аудио
Идентификатор : 2142 (0x85E)
Идентификатор меню : 21004 (0x520C)
Формат : MPEG Audio
Версия формата : Version 1
Профиль формата : Layer 2
Идентификатор кодека : 4
Продолжительность : 1 ч. 30 м.
Вид битрейта : Постоянный
Битрейт : 192 Кбит/сек
Каналы : 2 канала
Частота : 48,0 КГц
Метод сжатия : С потерями
Задержка видео : -12 мс.
Размер потока : 124 Мбайт (1%)
Язык : Russian
Скриншоты
Скачать

Скачать торрент!

Как скачивать? · Что такое торрент? · Рейтинг и ограничения

Сайт не распространяет и не хранит электронные версии произведений, а лишь предоставляет доступ к создаваемому пользователями каталогу ссылок на торрент-файлы, которые содержат только списки хеш-сумм

[Профиль] [ЛС]
Показать сообщения:    
Ответить на тему

Текущее время: Сегодня 21:24

Часовой пояс: GMT + 4



Вы не можете начинать темы
Вы не можете отвечать на сообщения
Вы не можете редактировать свои сообщения
Вы не можете удалять свои сообщения
Вы не можете голосовать в опросах
Вы не можете прикреплять файлы к сообщениям
Вы не можете скачивать файлы