Эван Всемогущий / Evan Almighty (Том Шадьяк / Tom Shadyac) [2007, США, Комедия, фэнтези, HDTV 1080i] MVO (1 канал)

Ответить на тему
 
Автор Сообщение

user ®

Стаж: 7 лет 7 месяцев

Сообщений: 20008

Пост Пост: #1 от 22-Фев-2015 12:21

[Цитировать]

Эван Всемогущий / Evan Almighty
Страна: США
Жанр: Комедия, фэнтези
Год выпуска: 2007
Продолжительность: 01:27:12
Перевод: Профессиональный (многоголосый закадровый) 1 канал
Cубтитры: нет
Оригинальная аудиодорожка: нет
Режиссер: Том Шадьяк / Tom Shadyac
В ролях: Стив Карелл, Морган Фриман, Лорен Грэм, Джонни Симмонс, Грэхэм Филлипс, Джимми Беннетт, Джон Гудман, Ванда Сайкес, Джон Майкл Хиггинс, Джона Хилл
Описание: Эван Бакстер, которого всемогущий босс Брюс заставил лепетать всякую чушь во время прямого эфира новостей, уходит с работы на телевидении. Но жизнь его сразу же пошла в гору: он стал конгрессменом. И тут вновь появился Господь Бог, который открыл перед Эваном ужасы грядущего и попросил срочно приступить к строительству ковчега, беря пример с Ноя.
Доп. информация: HDTV имеет иное наполнение кадра, чем BD:
Сравнение с BD
BD.............................HDTV


Сэмпл: https://yadi.sk/i/zM7pug5kepHSk
Тип релиза: HDTV 1080i
Контейнер: TS
Видео: AVC, 1920x1080 (16/9), 25.000 fps, 11.0 Mbps (0.212 bit/pixel)
Аудио: MP2, 48.0 KHz, 2 ch, 192 Kbps, CBR (Russian)
MediaInfo
Общее
Идентификатор : 3 (0x3)
Полное имя : K:\Эван Всемогущий.ts
Формат : MPEG-TS
Размер файла : 7,34 Гбайт
Продолжительность : 1 ч. 27 м.
Режим общего битрейта : Переменный
Общий поток : 12,0 Мбит/сек
Видео
Идентификатор : 2141 (0x85D)
Идентификатор меню : 21004 (0x520C)
Формат : AVC
Формат/Информация : Advanced Video Codec
Профиль формата : Main@L4.0
Параметр CABAC формата : Да
Параметр ReFrames формата : 3 кадра
Параметр GOP формата : M=4, N=28
Идентификатор кодека : 27
Продолжительность : 1 ч. 27 м.
Битрейт : 11,3 Мбит/сек
Ширина : 1920 пикселей
Высота : 1080 пикселей
Соотношение сторон : 16:9
Частота кадров : 25,000 кадров/сек
Стандарт вещания : Component
Цветовое пространство : YUV
Субдискретизация насыщенности : 4:2:0
Битовая глубина : 8 бит
Тип развёртки : Чересстрочная
Порядок развёртки : Верхнее поле первое
Бит/(Пиксели*Кадры) : 0.217
Размер потока : 6,86 Гбайт (93%)
Основные цвета : BT.709
Характеристики трансфера : BT.709
Коэффициенты матрицы : BT.709
Аудио
Идентификатор : 2142 (0x85E)
Идентификатор меню : 21004 (0x520C)
Формат : MPEG Audio
Версия формата : Version 1
Профиль формата : Layer 2
Идентификатор кодека : 4
Продолжительность : 1 ч. 27 м.
Вид битрейта : Постоянный
Битрейт : 192 Кбит/сек
Каналы : 2 канала
Частота : 48,0 КГц
Метод сжатия : С потерями
Задержка видео : -7 мс.
Размер потока : 120 Мбайт (2%)
Язык : Russian
Скриншоты
Скачать

Скачать торрент!

Как скачивать? · Что такое торрент? · Рейтинг и ограничения

Сайт не распространяет и не хранит электронные версии произведений, а лишь предоставляет доступ к создаваемому пользователями каталогу ссылок на торрент-файлы, которые содержат только списки хеш-сумм

[Профиль] [ЛС]
Показать сообщения:    
Ответить на тему

Текущее время: Сегодня 15:51

Часовой пояс: GMT + 4



Вы не можете начинать темы
Вы не можете отвечать на сообщения
Вы не можете редактировать свои сообщения
Вы не можете удалять свои сообщения
Вы не можете голосовать в опросах
Вы не можете прикреплять файлы к сообщениям
Вы не можете скачивать файлы