Вне времени / The Lovers (Роланд Жоффе / Roland Joffé) [2015, Бельгия, Индия, Австралия, Фантастика, боевик, мелодрама, приключения, WEB-DLRip] MVO

Ответить на тему
 
Автор Сообщение

user ®

Стаж: 7 лет 7 месяцев

Сообщений: 20008

Пост Пост: #1 от 21-Фев-2015 15:18

[Цитировать]

Вне времени / The Lovers
Страна: Бельгия, Индия, Австралия
Жанр: Фантастика, боевик, мелодрама, приключения
Год выпуска: 2015
Продолжительность: 01:49:01
Перевод: Любительский (многоголосый закадровый)
Дополнительно: Озвучка ICG Перевод Rummata
Оригинальная аудиодорожка: нет
Режиссер: Роланд Жоффе / Roland Joffé
В ролях: Джош Хартнетт, Бипаша Басу, Абхай Деол, Тэмзин Эджертон, Элис Энглерт, Клер ван дер Бом, Махеш Джаду, Симона Кэссел, Темина Санни
Описание: Это история о храбрости и великой силе любви. Археолог-подводник Джей Финнел вместе с женой исследует затонувшее торговое судно XVIII века. Однажды, пытаясь спасти супругу, он получает опасное ранение и впадает в кому. Борясь со смертью, герой переступает грань реальности и переносится в Индию 1778 года, где начинает жить жизнью британского офицера Джеймса Стюарта, поглощенного страстью к прекрасной воительнице Туладже.
Сэмпл: https://yadi.sk/i/QvgoKYxqep2bQ
Качество видео: WEB-DLRip
Формат видео: AVI
Видео: MPEG-4, 1672 Кбит/сек, 720*304 (2,35:1),в 24,000 кадров/сек,Visual (XviD)(Advanced Simple@L5)
Аудио: АС-3, 224 Кбит/сек, 48,0 КГц, 16 бит, 2 канала
MediaInfo
Общее
Полное имя : E:\Rutracker-Razdachi\Вне_времени.2015.WEB-DLRip.avi
Формат : AVI
Формат/Информация : Audio Video Interleave
Размер файла : 1,45 Гбайт
Продолжительность : 1 ч. 49 м.
Общий поток : 1906 Кбит/сек
Программа кодирования : VirtualDubMod 1.5.10.2 (build 2540/release)
Библиотека кодирования : VirtualDubMod build 2540/release
Видео
Идентификатор : 0
Формат : MPEG-4 Visual
Профиль формата : Advanced Simple@L5
Параметр BVOP формата : 1
Параметр QPel формата : Нет
Параметр GMC формата : Без точки перехода
Параметр матрицы формата : Default (MPEG)
Идентификатор кодека : XVID
Идентификатор кодека/Подсказка : XviD
Продолжительность : 1 ч. 49 м.
Битрейт : 1672 Кбит/сек
Ширина : 720 пикселей
Высота : 304 пикселя
Соотношение сторон : 2,35:1
Частота кадров : 24,000 кадра/сек
Цветовое пространство : YUV
Субдискретизация насыщенности : 4:2:0
Битовая глубина : 8 бит
Тип развёртки : Прогрессивная
Метод сжатия : С потерями
Бит/(Пиксели*Кадры) : 0.318
Размер потока : 1,27 Гбайт (88%)
Библиотека кодирования : XviD 64
Аудио
Идентификатор : 1
Формат : AC-3
Формат/Информация : Audio Coding 3
Расширение режима : CM (complete main)
Параметр Endianness формата : Big
Идентификатор кодека : 2000
Продолжительность : 1 ч. 49 м.
Вид битрейта : Постоянный
Битрейт : 224 Кбит/сек
Каналы : 2 канала
Расположение каналов : Front: L R
Частота : 48,0 КГц
Битовая глубина : 16 бит
Метод сжатия : С потерями
Размер потока : 175 Мбайт (12%)
Выравнивание : Соединение по промежуткам
Продолжительность промежутка : 42 мс. (1,00 видеокадр)
Время предзагрузки промежутка : 512 мс.
Скриншот c названием фильма Скриншоты
Скачать

Скачать торрент!

Как скачивать? · Что такое торрент? · Рейтинг и ограничения

Сайт не распространяет и не хранит электронные версии произведений, а лишь предоставляет доступ к создаваемому пользователями каталогу ссылок на торрент-файлы, которые содержат только списки хеш-сумм

[Профиль] [ЛС]
Показать сообщения:    
Ответить на тему

Текущее время: Сегодня 15:53

Часовой пояс: GMT + 4



Вы не можете начинать темы
Вы не можете отвечать на сообщения
Вы не можете редактировать свои сообщения
Вы не можете удалять свои сообщения
Вы не можете голосовать в опросах
Вы не можете прикреплять файлы к сообщениям
Вы не можете скачивать файлы