Монпура / Monpura (Селим Гияс Уддин / Selim Gias Uddin) [2009, Бангладеш, Драма, DVDRip] DVO (PashaUp и Nastia)

Ответить на тему
 
Автор Сообщение

user ®

Стаж: 13 лет

Сообщений: 15071

Пост Пост: #1 от 21-Фев-2015 12:09

[Цитировать]

--Монпура / Monpura- Страна: Бангладеш
Жанр: Драма
Год выпуска: 2009
Продолжительность: 02:19:22-Перевод: Любительский (двухголосый закадровый) PashaUp и Nastia
Cубтитры: нет
Режиссер: Селим Гияс Уддин / Selim Gias Uddin-В ролях: Чанчал Чоудхури (Сонаи), Фархана Мили (Пори), Фазрул Рахман Баду, Дилаза, Мамунур Рашид
Описание: История о разбитых сердцах, и разбитых жизнях. Легенда о Ромео и Джульетте никогда не потеряет свою актуальность.
В доме помещика живет молодой парень, по имени Сонаи. Помещик приходится родным дядей для сироты. Однажды ночью, в доме происходит трагедия. Убита служанка. Убил её сын помещика - Халим. Парень страдает психическим расстройством. Халима держат под присмотром на цепи. В ту ночь он уговорил свою мать отпустить его погулять. Халим оказавшись на свободе, совершает преступление. Чтобы сын избежал тюрьмы, хозяева придумали план. Они отправили Сонаи на нежилой остров Монпура. У него есть маленькая хижина, козы, корова, птичка в клетке, с которыми он каждый день ведет беседы. Но без общения с людьми, парень начинает скучать. Однажды к острову подплывает местный рыбак со своей дочерью. Молодые люди с первого взгляда влюбляются друг в друга. И однажды Пори в тайне приплывает к острову. Они признаются друг другу в любви. А тем временем помещик пытается вылечить сына от психического расстройства. Святой обещает дать ему свое благословение. Но только после того, как его женят на красивой девушке. Этой девушкой оказывается Пори. Сонаи ждет тюрьма за преступление, которого он не совершал, а Пори жизнь в новом доме с нелюбимым, и к тому же, сумасшедшим мужем.
Доп. информация: Монпура - дебютный фильм режиссера Гияса Уддина Селима. Съемки начались в 2007 году. И проходили в различных местах: Бхунат, Куштия и Дакке. Актриса Фархана Мили (Пори) сыграла в фильме свою дебютную роль. Фильм шел на экранах кинотеатров в Дакке более 7 недель. И имел большой успех у зрителей. На протяжении фильма звучат красивые песни. Считается, что эти песни заимствованы у народной музыки, но это оригиналы, написанные специально для фильма. Альбом с саундтреками, так же имел большой успех, и до сих пор пользуется популярностью. Премии: Монпура победил в пяти номинациях Национальной премии, включая Лучший фильм. Лучший фильм: Анджан Чоудхури Пинту. Лучший актер: Чанчал Чоудхури. Лучшая отрицательная роль: Мамунур Рашид. Лучший сценарий: Гияс Уддин Селим. Лучший певец: Чондона Мазумдер и Кази Кришноколи Ислам.-| Сэмпл | IMDB |-Качество видео: DVDRip
Формат видео: AVI
Видео: 640x352 (1.82:1), 25 fps, XviD build 50 ~1206 kbps avg, 0.21 bit/pixel
Аудио: 48 kHz, AC3 Dolby Digital, 2/0 (L,R) ch, ~192 kbps

MediaInfo
Формат : AVI
Формат/Информация : Audio Video Interleave
Размер файла : 1,37 Гбайт
Продолжительность : 2 ч. 19 м.
Общий поток : 1408 Кбит/сек
Программа кодирования : VirtualDubMod 1.5.10.2 (build 2540/release)
Библиотека кодирования : VirtualDubMod build 2540/release
Видео
Идентификатор : 0
Формат : MPEG-4 Visual
Профиль формата : Advanced Simple@L5
Параметр BVOP формата : 1
Параметр QPel формата : Нет
Параметр GMC формата : Без точки перехода
Параметр матрицы формата : Выборочная
Идентификатор кодека : XVID
Идентификатор кодека/Подсказка : XviD
Продолжительность : 2 ч. 19 м.
Битрейт : 1207 Кбит/сек
Ширина : 640 пикселей
Высота : 352 пикселя
Соотношение сторон : 16:9
Частота кадров : 25,000 кадров/сек
Цветовое пространство : YUV
Субдискретизация насыщенности : 4:2:0
Битовая глубина : 8 бит
Тип развёртки : Прогрессивная
Метод сжатия : С потерями
Бит/(Пиксели*Кадры) : 0.214
Размер потока : 1,17 Гбайт (86%)
Библиотека кодирования : XviD 1.2.1 (UTC 2008-12-04)
Аудио
Идентификатор : 1
Формат : AC-3
Формат/Информация : Audio Coding 3
Расширение режима : CM (complete main)
Параметр Endianness формата : Big
Идентификатор кодека : 2000
Продолжительность : 2 ч. 19 м.
Вид битрейта : Постоянный
Битрейт : 192 Кбит/сек
Каналы : 2 канала
Расположение каналов : Front: L R
Частота : 48,0 КГц
Битовая глубина : 16 бит
Метод сжатия : С потерями
Размер потока : 191 Мбайт (14%)
Выравнивание : Разделение по промежуткам
Продолжительность промежутка : 40 мс. (1,00 видеокадр)
Время предзагрузки промежутка : 500 мс.
Скриншот c названием фильма Скриншоты
Скачать

Скачать торрент! Монпура / Monpura (Селим Гияс Уддин / Selim Gias Uddin) [2009, Бангладеш, Драма, DVDRip] DVO (PashaUp и Nastia)

Как скачивать? · Что такое торрент? · Рейтинг и ограничения

Сайт не распространяет и не хранит электронные версии произведений, а лишь предоставляет доступ к создаваемому пользователями каталогу ссылок на торрент-файлы, которые содержат только списки хеш-сумм

[Профиль] [ЛС]
Показать сообщения:    
Ответить на тему

Текущее время: Сегодня 17:28

Часовой пояс: GMT + 4



Вы не можете начинать темы
Вы не можете отвечать на сообщения
Вы не можете редактировать свои сообщения
Вы не можете удалять свои сообщения
Вы не можете голосовать в опросах
Вы не можете прикреплять файлы к сообщениям
Вы не можете скачивать файлы