Бердмэн / Birdman (Алехандро Гонсалес Иньярриту / Alejandro González Iñárritu) [2014, США, Канада, драма, комедия, BDRip 1080p] Dub (iTunes) + VO (Д. Есарев (без цензуры)) + Sub Rus, Eng + Original Eng

Ответить на тему
 
Автор Сообщение

user ®

Стаж: 7 лет 7 месяцев

Сообщений: 20008

Пост Пост: #1 от 20-Фев-2015 16:15

[Цитировать]

Бердмэн / Birdman
Страна: США, Канада
Студия: New Regency Pictures - M Prods - Le Grisbi Productions
Жанр: драма, комедия
Год выпуска: 2014
Продолжительность: 01:59:17
Перевод: Профессиональный (дублированный) iTunes
Перевод 2: Одноголосый закадровый Д. Есарев (без цензуры)
Cубтитры: Rus, Eng
Оригинальная аудиодорожка: английский
Режиссер: Алехандро Гонсалес Иньярриту / Alejandro González Iñárritu
В ролях: Майкл Китон, Зак Галифианакис, Эдвард Нортон, Андреа Райзборо, Эми Райан, Эмма Стоун, Наоми Уоттс, Кенни Чин, Жамаль Гаррисон-Лоу, Джереми Шамос
Описание: В центре сюжета бывший актер, некогда сыгравший роль популярного супергероя Бёрдмэна, и теперь, переступая через свое эго, он решает принять участие в новой бродвейской постановке с целью вернуть себе былую славу, блеск и величие.
Доп. информация: Перевод Дмитрия Есарева доступен благодаря пользователю "Переулка Переводмана": mihey10
Работа со звуком - mihaildns

Тип релиза: BDRip 1080p
Контейнер: MKV
Видео: MPEG-4 AVC, 16.5 Mбит/с, 1920x1040, 23,976 fps
Аудио: Rus, AC3, 384 kb/s (6 ch), 48 kHz
Аудио 2: Rus, DTS, 1510 kb/s (6 ch), 48 kHz
Аудио 3: Eng, DTS, 1510 kb/s (6 ch), 48 kHz
Формат субтитров: softsub (SRT)
MediaInfo
Format : Matroska
Format version : Version 4 / Version 2
File size : 16.9 GiB
Duration : 1h 59mn
Overall bit rate : 20.3 Mbps
Movie name : Tonik
Encoded date : UTC 2015-02-18 20:09:41
Writing application : mkvmerge v7.1.0 ('Good Love') 64bit built on Jul 27 2014 13:06:55
Writing library : libebml v1.3.0 + libmatroska v1.4.1
_STATISTICS_WRITING_APP : mkvmerge v7.1.0 ('Good Love') 64bit built on Jul 27 2014 13:06:55
_STATISTICS_WRITING_DATE_UTC : 2015-02-18 20:09:41
_STATISTICS_TAGS : BPS DURATION NUMBER_OF_FRAMES NUMBER_OF_BYTES
DURATION : 01:59:17.195000000
NUMBER_OF_FRAMES : 670987
NUMBER_OF_BYTES : 1350025844
Attachment : Yes
Video
ID : 1
Format : AVC
Format/Info : Advanced Video Codec
Format profile : High@L4.1
Format settings, CABAC : Yes
Format settings, ReFrames : 4 frames
Codec ID : V_MPEG4/ISO/AVC
Duration : 1h 59mn
Bit rate : 16.5 Mbps
Width : 1 920 pixels
Height : 1 040 pixels
Display aspect ratio : 1.85:1
Frame rate mode : Constant
Frame rate : 23.976 fps
Color space : YUV
Chroma subsampling : 4:2:0
Bit depth : 8 bits
Scan type : Progressive
Bits/(Pixel*Frame) : 0.344
Stream size : 13.7 GiB (81%)
Writing library : x264 core 142 r2431+42 c69a006 tMod [8-bit@all X86_64]
Encoding settings : cabac=1 / ref=4 / deblock=1:-3:-3 / analyse=0x3:0x133 / me=umh / subme=11 / psy=1 / fade_compensate=0.00 / psy_rd=1.08:0.00 / mixed_ref=1 / me_range=48 / chroma_me=1 / trellis=2 / 8x8dct=1 / cqm=0 / deadzone=21,11 / fast_pskip=0 / chroma_qp_offset=-2 / threads=12 / lookahead_threads=2 / sliced_threads=0 / nr=0 / decimate=0 / interlaced=0 / bluray_compat=0 / constrained_intra=0 / fgo=0 / bframes=9 / b_pyramid=2 / b_adapt=2 / b_bias=0 / direct=3 / weightb=1 / open_gop=0 / weightp=2 / keyint=250 / keyint_min=23 / scenecut=40 / intra_refresh=0 / rc_lookahead=60 / rc=crf / mbtree=0 / crf=16.5000 / qcomp=0.60 / qpmin=0:0:0 / qpmax=69:69:69 / qpstep=4 / vbv_maxrate=50000 / vbv_bufsize=62500 / crf_max=0.0 / nal_hrd=none / filler=0 / ip_ratio=1.30 / pb_ratio=1.20 / aq=1:0.68 / aq-sensitivity=10.00 / aq-factor=1.00:1.00:1.00 / aq2=0 / aq3=0 / zones=713,923,crf=15.9/29590,30959,crf=15.9/54238,54275,crf=15.9/61604,61691,crf=15.9/93619,93760,crf=15.9/98473,99024,crf=15.9/99439,100533,crf=15.9/101529,101763,crf=15.9/103631,103829,crf=15.9/103930,104000,crf=15.9/110555,110584,crf=15.9/125483,125691,crf=15.9/125869,126601,crf=15.9/144100,144217,crf=15.9/144271,144299,crf=15.9/144495,144606,crf=15.9/144634,145251,crf=15.9/148745,148864,crf=15.9/158616,158681,crf=15.9/163961,171599,crf=19
Language : English
Default : Yes
Forced : No
Matrix coefficients : BT.709
DURATION : 01:59:17.192000000
NUMBER_OF_FRAMES : 171601
NUMBER_OF_BYTES : 15085750088
_STATISTICS_WRITING_APP : mkvmerge v7.1.0 ('Good Love') 64bit built on Jul 27 2014 13:06:55
_STATISTICS_WRITING_DATE_UTC : 2015-02-18 20:09:41
_STATISTICS_TAGS : BPS DURATION NUMBER_OF_FRAMES NUMBER_OF_BYTES
Audio #1
ID : 2
Format : AC-3
Format/Info : Audio Coding 3
Mode extension : CM (complete main)
Format settings, Endianness : Big
Codec ID : A_AC3
Duration : 1h 59mn
Bit rate mode : Constant
Bit rate : 384 Kbps
Channel(s) : 6 channels
Channel positions : Front: L C R, Side: L R, LFE
Sampling rate : 48.0 KHz
Bit depth : 16 bits
Compression mode : Lossy
Stream size : 328 MiB (2%)
Title : iTunes
Language : Russian
Default : Yes
Forced : No
Audio #2
ID : 3
Format : DTS
Format/Info : Digital Theater Systems
Mode : 16
Format settings, Endianness : Big
Codec ID : A_DTS
Duration : 1h 59mn
Bit rate mode : Constant
Bit rate : 1 509 Kbps
Channel(s) : 6 channels
Channel positions : Front: L C R, Side: L R, LFE
Sampling rate : 48.0 KHz
Bit depth : 24 bits
Compression mode : Lossy
Stream size : 1.26 GiB (7%)
Title : Есарев
Language : Russian
Default : No
Forced : No
Audio #3
ID : 4
Format : DTS
Format/Info : Digital Theater Systems
Mode : 16
Format settings, Endianness : Big
Codec ID : A_DTS
Duration : 1h 59mn
Bit rate mode : Constant
Bit rate : 1 509 Kbps
Channel(s) : 6 channels
Channel positions : Front: L C R, Side: L R, LFE
Sampling rate : 48.0 KHz
Bit depth : 24 bits
Compression mode : Lossy
Stream size : 1.26 GiB (7%)
Language : English
Default : No
Forced : No
Text #1
ID : 5
Format : UTF-8
Codec ID : S_TEXT/UTF8
Codec ID/Info : UTF-8 Plain Text
Language : Russian
Default : No
Forced : No
Text #2
ID : 6
Format : UTF-8
Codec ID : S_TEXT/UTF8
Codec ID/Info : UTF-8 Plain Text
Language : English
Default : No
Forced : No
Menu
00:00:00.000 : en:Chapter 01
00:03:27.000 : en:Chapter 02
00:07:32.000 : en:Chapter 03
00:09:07.000 : en:Chapter 04
00:12:37.000 : en:Chapter 05
00:16:51.000 : en:Chapter 06
00:19:05.000 : en:Chapter 07
00:20:19.000 : en:Chapter 08
00:25:18.000 : en:Chapter 09
00:31:42.000 : en:Chapter 10
00:36:06.000 : en:Chapter 11
00:37:09.000 : en:Chapter 12
00:42:06.000 : en:Chapter 13
00:48:45.000 : en:Chapter 14
00:53:26.000 : en:Chapter 15
00:58:26.000 : en:Chapter 16
01:03:12.000 : en:Chapter 17
01:08:24.000 : en:Chapter 18
01:12:37.000 : en:Chapter 19
01:16:55.000 : en:Chapter 20
01:20:39.000 : en:Chapter 21
01:25:07.000 : en:Chapter 22
01:27:58.000 : en:Chapter 23
01:33:15.000 : en:Chapter 24
01:39:08.000 : en:Chapter 25
01:43:03.000 : en:Chapter 26
01:46:36.000 : en:Chapter 27
01:52:09.000 : en:Chapter 28
Скриншоты
Скачать

Скачать торрент!

Как скачивать? · Что такое торрент? · Рейтинг и ограничения

Сайт не распространяет и не хранит электронные версии произведений, а лишь предоставляет доступ к создаваемому пользователями каталогу ссылок на торрент-файлы, которые содержат только списки хеш-сумм

[Профиль] [ЛС]
Показать сообщения:    
Ответить на тему

Текущее время: Сегодня 06:15

Часовой пояс: GMT + 4



Вы не можете начинать темы
Вы не можете отвечать на сообщения
Вы не можете редактировать свои сообщения
Вы не можете удалять свои сообщения
Вы не можете голосовать в опросах
Вы не можете прикреплять файлы к сообщениям
Вы не можете скачивать файлы