Разум и чувства / Sense and Sensibility (Энг Ли / Ang Lee) [1995, США, Великобритания, Драма, мелодрама, BDRip 1080p] Dub + 3х MVO (НТВ+, 1-й канал, ВидеоСервис) + Original Eng + Sub Rus, Eng

Ответить на тему
 
Автор Сообщение

user ®

Стаж: 7 лет 7 месяцев

Сообщений: 20008

Пост Пост: #1 от 20-Фев-2015 16:15

[Цитировать]

Разум и чувства / Sense and Sensibility- Страна: США, Великобритания
Год выпуска: 1995
Релиз на Blu-ray: 15 Апреля 2013
Студия: Columbia Pictures
Жанр: Драма, мелодрама
Продолжительность: 02:16:17
Перевод №1: Профессиональный дублированный | Blu-ray
Перевод №2: Профессиональный многоголосый закадровый | НТВ+
Перевод №3: Профессиональный многоголосый закадровый | Первый канал
Перевод №4: Профессиональный многоголосый закадровый | ВидеоСервис
Оригинальная аудиодорожка: английская
Cубтитры: русские, английские (US/UK/SDH)
Навигация по главам: есть-Режиссер: Энг Ли / Ang Lee
Сценарий: Эмма Томпсон / Emma Thompson, Джейн Остин / Jane Austen
Оператор: Майкл Коултер / Michael Coulter
Композитор: Патрик Дойл / Patrick Doyle
В ролях: Эмма Томпсон, Кейт Уинслет, Хью Грант, Алан Рикман, Джеймс Флит, Том Уилкинсон, Харриет Уолтер, Джемма Джонс, Эмили Франсуа, Элизабет Сприггс, Роберт Харди, Йен Бримбл, Изабель Эмис и др.

Описание: История жизни и любви двух сестер - чувственной Элинор и страстной Марианны, чье счастье и будущее омрачено смертью отца и потерей огромного состояния семьи.
Это история-конфликт желаний и строгих правил буржуазного общества, жестоко осуждавшего любое проявление чувственных влечений и выносившее суровый приговор снобистского пуританства.
Сюжет: После смерти мистера Дэшвуда его состояние переходит по наследству к сыну от первого брака, Джону Дэшвуду. Вторая жена и её трое дочерей попадают в затруднительное положение. Она и её дочери вынуждены переехать в коттедж, который им любезно предоставляет сэр Джон Миддлтон, дальний родственник миссис Дэшвуд.
Старшие из трёх сестёр — прагматичная Элинор и романтичная Марианна — незамужние леди. Ещё в доме мистера Дэшвуда Элинор знакомится с братом миссис Фанни (жены Джона) — Эдвардом Феррарсом. Обнаружив, что Эдвард и Элинор всерьёз увлечены друг другом, миссис Фанни Дэшвуд пишет матери, и та немедленно отзывает Эдварда в Лондон...
Blu-ray-Тип релиза: BDRip 1080p
Контейнер: MKV
Видео: H.264 / 1920x1040 (1.85:1) / 23.976 fps / 11.4 Mbps / High@L4.1
Аудио №1: AC3 / 5.0 / 16 bits / 48 KHz / 640 Kbps / Русский (DUB) | Blu-ray
Аудио №2: AC3 / 2.0 / 16 bits / 48 KHz / 256 Kbps / Русский (MVO) | НТВ+
Аудио №3: AC3 / 2.0 / 16 bits / 48 KHz / 256 Kbps / Русский (MVO) | Первый канал
Аудио №4: AC3 / 2.0 / 16 bits / 48 KHz / 256 Kbps / Русский (MVO) | ВидеоСервис
Аудио №5: DTS / 5.0 / 24 bits / 48 kHz / 1510 Kbps / Английский (Original) | Blu-ray
Формат субтитров: softsub (SRT)
Аппаратная совместимость: Рип полностью совместим с железными медиаплеерами, проверено на телевизоре Panasonic TX-PR50VT60.

MediaInfo
Общее
Уникальный идентификатор : 243385937972227271810100757966878062331 (0xB71A6D358CA4272FBC7A525178D6B6FB)
Полное имя : J:\КИНО 4\Разум и чувства - Sense and Sensibility [BDRip 1080p] (1995)\Sense.and.Sensibility.1995.1080p.BluRay.X264.mkv
Формат : Matroska
Версия формата : Version 4 / Version 2
Размер файла : 13,9 Гбайт
Продолжительность : 2 ч. 16 м.
Общий поток : 14,6 Мбит/сек
Название фильма : Разум и чувства / Sense and Sensibility / 1995 / BDRip -- STarankov
Дата кодирования : UTC 2015-02-19 00:07:51
Программа кодирования : mkvmerge v7.6.0 ('Garden of Dreams') 32bit built on Feb 8 2015 12:51:39
Библиотека кодирования : libebml v1.3.1 + libmatroska v1.4.2
_STATISTICS_WRITING_APP : mkvmerge v7.6.0 ('Garden of Dreams') 32bit built on Feb 8 2015 12:51:39
_STATISTICS_WRITING_DATE_UTC : 2015-02-19 00:07:51
_STATISTICS_TAGS : BPS DURATION NUMBER_OF_FRAMES NUMBER_OF_BYTES
DURATION : 02:13:25.496000000
NUMBER_OF_FRAMES : 1574
NUMBER_OF_BYTES : 57530
Видео
Идентификатор : 1
Формат : AVC
Формат/Информация : Advanced Video Codec
Профиль формата : High@L4.1
Параметр CABAC формата : Да
Параметр ReFrames формата : 4 кадра
Идентификатор кодека : V_MPEG4/ISO/AVC
Продолжительность : 2 ч. 16 м.
Битрейт : 11,4 Мбит/сек
Ширина : 1920 пикселей
Высота : 1040 пикселей
Соотношение сторон : 1,85:1
Режим частоты кадров : Постоянный
Частота кадров : 23,976 кадра/сек
Цветовое пространство : YUV
Субдискретизация насыщенности : 4:2:0
Битовая глубина : 8 бит
Тип развёртки : Прогрессивная
Бит/(Пиксели*Кадры) : 0.238
Размер потока : 10,8 Гбайт (78%)
Библиотека кодирования : x264 core 130 r2273 b3065e6
Настройки программы : cabac=1 / ref=4 / deblock=1:-1:-1 / analyse=0x3:0x113 / me=umh / subme=9 / psy=1 / psy_rd=1.00:0.15 / mixed_ref=1 / me_range=24 / chroma_me=1 / trellis=2 / 8x8dct=1 / cqm=0 / deadzone=21,11 / fast_pskip=1 / chroma_qp_offset=-3 / threads=6 / lookahead_threads=1 / sliced_threads=0 / nr=0 / decimate=1 / interlaced=0 / bluray_compat=0 / constrained_intra=0 / bframes=8 / b_pyramid=2 / b_adapt=2 / b_bias=0 / direct=1 / weightb=0 / open_gop=0 / weightp=2 / keyint=230 / keyint_min=23 / scenecut=40 / intra_refresh=0 / rc=crf / mbtree=0 / crf=18.5 / qcomp=0.60 / qpmin=0 / qpmax=69 / qpstep=4 / ip_ratio=1.40 / pb_ratio=1.30 / aq=1:1.00
Язык : English
Default : Да
Forced : Нет
DURATION : 02:16:17.169000000
NUMBER_OF_FRAMES : 196056
NUMBER_OF_BYTES : 11930542204
_STATISTICS_WRITING_APP : mkvmerge v7.6.0 ('Garden of Dreams') 32bit built on Feb 8 2015 12:51:39
_STATISTICS_WRITING_DATE_UTC : 2015-02-19 00:07:51
_STATISTICS_TAGS : BPS DURATION NUMBER_OF_FRAMES NUMBER_OF_BYTES
Аудио #1
Идентификатор : 2
Формат : AC-3
Формат/Информация : Audio Coding 3
Расширение режима : CM (complete main)
Параметр Endianness формата : Big
Идентификатор кодека : A_AC3
Продолжительность : 2 ч. 16 м.
Вид битрейта : Постоянный
Битрейт : 640 Кбит/сек
Каналы : 5 каналов
Расположение каналов : Front: L C R, Side: L R
Частота : 48,0 КГц
Битовая глубина : 16 бит
Метод сжатия : С потерями
Размер потока : 624 Мбайт (4%)
Заголовок : DUB | Blu-ray
Язык : Russian
Default : Да
Forced : Нет
Аудио #2
Идентификатор : 3
Формат : AC-3
Формат/Информация : Audio Coding 3
Расширение режима : CM (complete main)
Параметр Endianness формата : Big
Идентификатор кодека : A_AC3
Продолжительность : 2 ч. 16 м.
Вид битрейта : Постоянный
Битрейт : 256 Кбит/сек
Каналы : 2 канала
Расположение каналов : Front: L R
Частота : 48,0 КГц
Битовая глубина : 16 бит
Метод сжатия : С потерями
Размер потока : 250 Мбайт (2%)
Заголовок : MVO | НТВ+
Язык : Russian
Default : Нет
Forced : Нет
Аудио #3
Идентификатор : 4
Формат : AC-3
Формат/Информация : Audio Coding 3
Расширение режима : CM (complete main)
Параметр Endianness формата : Big
Идентификатор кодека : A_AC3
Продолжительность : 2 ч. 16 м.
Вид битрейта : Постоянный
Битрейт : 256 Кбит/сек
Каналы : 2 канала
Расположение каналов : Front: L R
Частота : 48,0 КГц
Битовая глубина : 16 бит
Метод сжатия : С потерями
Размер потока : 250 Мбайт (2%)
Заголовок : MVO | Первый канал
Язык : Russian
Default : Нет
Forced : Нет
Аудио #4
Идентификатор : 5
Формат : AC-3
Формат/Информация : Audio Coding 3
Расширение режима : CM (complete main)
Параметр Endianness формата : Big
Идентификатор кодека : A_AC3
Продолжительность : 2 ч. 16 м.
Вид битрейта : Постоянный
Битрейт : 256 Кбит/сек
Каналы : 2 канала
Расположение каналов : Front: L R
Частота : 48,0 КГц
Битовая глубина : 16 бит
Метод сжатия : С потерями
Размер потока : 250 Мбайт (2%)
Заголовок : MVO | ВидеоСервис
Язык : Russian
Default : Нет
Forced : Нет
Аудио #5
Идентификатор : 6
Формат : DTS
Формат/Информация : Digital Theater Systems
Режим : 16
Параметр Endianness формата : Big
Идентификатор кодека : A_DTS
Продолжительность : 2 ч. 16 м.
Вид битрейта : Постоянный
Битрейт : 1509 Кбит/сек
Каналы : 5 каналов
Расположение каналов : Front: L C R, Side: L R
Частота : 48,0 КГц
Битовая глубина : 24 бит
Метод сжатия : С потерями
Размер потока : 1,44 Гбайт (10%)
Заголовок : Original | Blu-ray
Язык : English
Default : Нет
Forced : Нет
Текст #1
Идентификатор : 7
Формат : UTF-8
Идентификатор кодека : S_TEXT/UTF8
Идентификатор кодека/Информация : UTF-8 Plain Text
Заголовок : RUS
Язык : Russian
Default : Нет
Forced : Нет
Текст #2
Идентификатор : 8
Формат : UTF-8
Идентификатор кодека : S_TEXT/UTF8
Идентификатор кодека/Информация : UTF-8 Plain Text
Заголовок : US
Язык : English
Default : Нет
Forced : Нет
Текст #3
Идентификатор : 9
Формат : UTF-8
Идентификатор кодека : S_TEXT/UTF8
Идентификатор кодека/Информация : UTF-8 Plain Text
Заголовок : UK
Язык : English
Default : Нет
Forced : Нет
Текст #4
Идентификатор : 10
Формат : UTF-8
Идентификатор кодека : S_TEXT/UTF8
Идентификатор кодека/Информация : UTF-8 Plain Text
Заголовок : SDH
Язык : English
Default : Нет
Forced : Нет
Меню
00:00:00.000 : en:00:00:00.000
00:08:47.777 : en:00:08:47.777
00:16:00.793 : en:00:16:00.793
00:23:26.155 : en:00:23:26.155
00:32:15.892 : en:00:32:15.892
00:41:08.716 : en:00:41:08.716
00:51:09.024 : en:00:51:09.024
00:55:05.969 : en:00:55:05.969
01:04:38.166 : en:01:04:38.166
01:16:49.313 : en:01:16:49.313
01:24:16.426 : en:01:24:16.426
01:33:50.834 : en:01:33:50.834
01:39:51.611 : en:01:39:51.611
01:48:26.709 : en:01:48:26.709
01:57:54.693 : en:01:57:54.693
02:06:07.018 : en:02:06:07.018
Скриншоты Сравнение с Blu-ray
----------- Blu-ray ------------------- BDRip 1080p -------



- Дополнительно
ВСЕ МОИ РАЗДАЧИ
Скачать

Скачать торрент!

Как скачивать? · Что такое торрент? · Рейтинг и ограничения

Сайт не распространяет и не хранит электронные версии произведений, а лишь предоставляет доступ к создаваемому пользователями каталогу ссылок на торрент-файлы, которые содержат только списки хеш-сумм

[Профиль] [ЛС]
Показать сообщения:    
Ответить на тему

Текущее время: Сегодня 20:16

Часовой пояс: GMT + 4



Вы не можете начинать темы
Вы не можете отвечать на сообщения
Вы не можете редактировать свои сообщения
Вы не можете удалять свои сообщения
Вы не можете голосовать в опросах
Вы не можете прикреплять файлы к сообщениям
Вы не можете скачивать файлы