Стеклянный дом / The Glass House (Дэниэл Сакхейм / Daniel Sackheim) [2001, США, триллер, WEB-DL 720p] DVO + VO + Sub Rus, Eng + Original Eng

Ответить на тему
 
Автор Сообщение

user ®

Стаж: 7 лет 7 месяцев

Сообщений: 20008

Пост Пост: #1 от 20-Фев-2015 16:15

[Цитировать]

Стеклянный дом / The Glass House
Страна: США
Студия: Columbia Pictures Corporation, Original Film
Жанр: триллер
Год выпуска: 2001
Продолжительность: 01:46:18
Перевод: Профессиональный (двухголосый закадровый) Видеосервис
Перевод 2: Одноголосый закадровый
Cубтитры: русские, английские
Оригинальная аудиодорожка: английский
Режиссер: Дэниэл Сакхейм /Daniel Sackheim
В ролях: Лили Собески, Дайан Лэйн, Стеллан Скарсгард, Брюс Дерн, Кэти Бейкер, Тревор Морган, Крис Нот, Майкл О’Киф, Вито Руджинис, Гэвин О’Коннор
Описание: После гибели родителей подростков Руби и Ретта взяли к себе жить лучшие друзья покойных — бездетные Эрин и Терри Глассы, хозяева самого роскошного особняка в Малибу. Причудливое здание со стеклянными стенами отныне должно было стать им домом. Но не стало. Очень скоро внимательная Руби открывает, что этот шедевр архитектуры скрывает в себе некую страшную тайну. И что их приемные папа с мамой — вовсе не такие добрые и симпатичные люди, какими кажутся.
В этих стенах из стекла бродит смерть. Стоит промедлить — и она настигнет Руби и Ретта, как настигла их родителей. Единственный способ избежать гибели — раскрыть зловещий секрет, что прячут в своих холодных сердцах такие милые на вид Глассы…


Sample
Тип релиза: WEB-DL 720p
Контейнер: MKV
Видео: MPEG4 AVC Video, H264, 16:9, 1280x720, 23.976 fps, 3841 kbps
Аудио: Russian (AC3, 6 ch, 448 kbps, 16 bits, 48.0 KHz) - DVO
Аудио 2: Russian (AC3, 2 ch, 192 kbps, 16 bits, 48.0 KHz) - VO
Аудио 3: English (AC3, 6 ch, 448 kbps, 16 bits, 48.0 KHz) - оригинал
Формат субтитров: softsub (SRT)

MediaInfo
General
Unique ID : 208014185200684694975381224513936449243 (0x9C7E1326FAC54F5B8AD32EA4AC765EDB)
Complete name : E:\1\The Glass House 2001 WEB-DL 720p.mkv
Format : Matroska
Format version : Version 4 / Version 2
File size : 3.73 GiB
Duration : 1h 46mn
Overall bit rate : 5 029 Kbps
Encoded date : UTC 2015-02-18 23:16:06
Writing application : mkvmerge v6.1.0 ('Old Devil') built on Mar 2 2013 14:32:37
Writing library : libebml v1.3.0 + libmatroska v1.4.0
Video
ID : 1
Format : AVC
Format/Info : Advanced Video Codec
Format profile : High@L3.1
Format settings, CABAC : No
Format settings, ReFrames : 2 frames
Codec ID : V_MPEG4/ISO/AVC
Duration : 1h 46mn
Bit rate : 3 841 Kbps
Width : 1 280 pixels
Height : 720 pixels
Display aspect ratio : 16:9
Frame rate mode : Constant
Frame rate : 23.976 fps
Color space : YUV
Chroma subsampling : 4:2:0
Bit depth : 8 bits
Scan type : Progressive
Bits/(Pixel*Frame) : 0.174
Stream size : 2.85 GiB (76%)
Language : English
Default : Yes
Forced : No
Color primaries : BT.709
Transfer characteristics : BT.709
Matrix coefficients : BT.709
Audio #1
ID : 2
Format : AC-3
Format/Info : Audio Coding 3
Mode extension : CM (complete main)
Format settings, Endianness : Big
Codec ID : A_AC3
Duration : 1h 46mn
Bit rate mode : Constant
Bit rate : 448 Kbps
Channel count : 6 channels
Channel positions : Front: L C R, Side: L R, LFE
Sampling rate : 48.0 KHz
Bit depth : 16 bits
Compression mode : Lossy
Stream size : 341 MiB (9%)
Title : MVO
Language : Russian
Default : Yes
Forced : Yes
Audio #2
ID : 3
Format : AC-3
Format/Info : Audio Coding 3
Mode extension : CM (complete main)
Format settings, Endianness : Big
Codec ID : A_AC3
Duration : 1h 46mn
Bit rate mode : Constant
Bit rate : 192 Kbps
Channel count : 2 channels
Channel positions : Front: L R
Sampling rate : 48.0 KHz
Bit depth : 16 bits
Compression mode : Lossy
Stream size : 146 MiB (4%)
Title : VO
Language : Russian
Default : No
Forced : No
Audio #3
ID : 4
Format : AC-3
Format/Info : Audio Coding 3
Mode extension : CM (complete main)
Format settings, Endianness : Big
Codec ID : A_AC3
Duration : 1h 46mn
Bit rate mode : Constant
Bit rate : 448 Kbps
Channel count : 6 channels
Channel positions : Front: L C R, Side: L R, LFE
Sampling rate : 48.0 KHz
Bit depth : 16 bits
Compression mode : Lossy
Stream size : 341 MiB (9%)
Language : English
Default : No
Forced : No
Text #1
ID : 5
Format : UTF-8
Codec ID : S_TEXT/UTF8
Codec ID/Info : UTF-8 Plain Text
Language : Russian
Default : No
Forced : No
Text #2
ID : 6
Format : UTF-8
Codec ID : S_TEXT/UTF8
Codec ID/Info : UTF-8 Plain Text
Language : English
Default : No
Forced : No
Menu
00:00:00.000 : en:Start
00:04:38.000 : en:"Your Parents Are Dead"
00:06:01.000 : en:Remembering Dave & Grace
00:08:19.000 : en:Uncle Jack
00:09:49.000 : en:Alan Begleiter
00:13:51.000 : en:The Grand Tour
00:16:10.000 : en:Night Watch
00:17:58.000 : en:Middle-Of-The-Year New
00:22:24.000 : en:3am Swim
00:27:00.000 : en:Voices In The Night
00:29:37.000 : en:A Lonely Man
00:32:48.000 : en:Baked
00:33:46.000 : en:A Real Disturbing Visit
00:40:33.000 : en:Business Glitch
00:45:10.000 : en:Hamlet Helper
00:50:50.000 : en:Routine Site Inspection
00:56:02.000 : en:Wide Awake & Wondering
01:04:03.000 : en:The Great Escape
01:09:33.000 : en:"You Killed My Parents"
01:11:42.000 : en:Ruby's Tantrum
01:14:12.000 : en:Trust Bust
01:17:20.000 : en:Erin Loses Her License
01:19:09.000 : en:One Way Out
01:25:03.000 : en:Baiting The Trap
01:28:37.000 : en:Broken Trust
01:29:35.000 : en:Terry & The Pirates
01:31:55.000 : en:Shattered Glass
01:36:44.000 : en:Road Kill
Скриншоты
Скачать

Скачать торрент!

Как скачивать? · Что такое торрент? · Рейтинг и ограничения

Сайт не распространяет и не хранит электронные версии произведений, а лишь предоставляет доступ к создаваемому пользователями каталогу ссылок на торрент-файлы, которые содержат только списки хеш-сумм

[Профиль] [ЛС]
Показать сообщения:    
Ответить на тему

Текущее время: Сегодня 09:50

Часовой пояс: GMT + 4



Вы не можете начинать темы
Вы не можете отвечать на сообщения
Вы не можете редактировать свои сообщения
Вы не можете удалять свои сообщения
Вы не можете голосовать в опросах
Вы не можете прикреплять файлы к сообщениям
Вы не можете скачивать файлы