Восстание / Uprising (Джон Эвнет / Jon Avnet) [2001, США, драма, военный, WEB-DL 720p] VO + Sub Eng + Original Eng

Ответить на тему
 
Автор Сообщение

user ®

Стаж: 7 лет 7 месяцев

Сообщений: 20008

Пост Пост: #1 от 20-Фев-2015 16:15

[Цитировать]

Восстание / Uprising
Страна: США
Студия: Avnet/Kerner Productions, Brooklyn Films, Raffaella Productions
Жанр: драма, военный
Год выпуска: 2001
Продолжительность: 02:53:24
Перевод: Одноголосый закадровый
Cубтитры: английские
Оригинальная аудиодорожка: английский
Режиссер: Джон Эвнет / Jon Avnet
В ролях: Лили Собески, Хэнк Азария, Дэвид Швиммер, Джон Войт, Дональд Сазерленд, Стефен Мойер, Сэди Фрост, Рада Митчел, Мили Авитал, Эрик Лайвли
Описание: 18 января 1943 года. Нацисты собираются раз и навсегда покончить с евреями варшавского гетто, отправив их в «последний путь» — в концлагерь Треблинка. Но их зловещие планы были разрушены: вооруженные мужчины и женщины из «Еврейской Боевой Организации» дали отпор фашистам!

Sample
Тип релиза: WEB-DL 720p
Контейнер: MKV
Видео: MPEG4 AVC Video, H264, 16:9, 1278x720, 23.976 fps, 3978 kbps
Аудио: Russian (AC3, 2 ch, 192 kbps, 16 bits, 48.0 KHz) - VO
Аудио 2: English (AC3, 6 ch, 384 kbps, 16 bits, 48.0 KHz) - оригинал
Формат субтитров: softsub (SRT)

MediaInfo
General
Unique ID : 171888456288279076596390183022996014624 (0x815083339805022187E39585A660C620)
Complete name : E:\1\Uprising 2001 WEB-DL 720p.mkv
Format : Matroska
Format version : Version 4 / Version 2
File size : 5.63 GiB
Duration : 2h 53mn
Overall bit rate : 4 646 Kbps
Encoded date : UTC 2015-02-18 22:04:26
Writing application : mkvmerge v6.1.0 ('Old Devil') built on Mar 2 2013 14:32:37
Writing library : libebml v1.3.0 + libmatroska v1.4.0
Video
ID : 1
Format : AVC
Format/Info : Advanced Video Codec
Format profile : High@L3.1
Format settings, CABAC : No
Format settings, ReFrames : 2 frames
Codec ID : V_MPEG4/ISO/AVC
Duration : 2h 53mn
Bit rate : 3 978 Kbps
Width : 1 278 pixels
Height : 720 pixels
Display aspect ratio : 16:9
Frame rate mode : Constant
Frame rate : 23.976 fps
Color space : YUV
Chroma subsampling : 4:2:0
Bit depth : 8 bits
Scan type : Progressive
Bits/(Pixel*Frame) : 0.180
Stream size : 4.82 GiB (86%)
Language : English
Default : Yes
Forced : No
Color primaries : BT.709
Transfer characteristics : BT.709
Matrix coefficients : BT.709
Audio #1
ID : 2
Format : AC-3
Format/Info : Audio Coding 3
Mode extension : CM (complete main)
Format settings, Endianness : Big
Codec ID : A_AC3
Duration : 2h 53mn
Bit rate mode : Constant
Bit rate : 192 Kbps
Channel count : 2 channels
Channel positions : Front: L R
Sampling rate : 48.0 KHz
Bit depth : 16 bits
Compression mode : Lossy
Stream size : 238 MiB (4%)
Language : Russian
Default : Yes
Forced : Yes
Audio #2
ID : 3
Format : AC-3
Format/Info : Audio Coding 3
Mode extension : CM (complete main)
Format settings, Endianness : Big
Codec ID : A_AC3
Duration : 2h 53mn
Bit rate mode : Constant
Bit rate : 384 Kbps
Channel count : 6 channels
Channel positions : Front: L C R, Side: L R, LFE
Sampling rate : 48.0 KHz
Bit depth : 16 bits
Compression mode : Lossy
Stream size : 476 MiB (8%)
Language : English
Default : No
Forced : No
Text
ID : 4
Format : UTF-8
Codec ID : S_TEXT/UTF8
Codec ID/Info : UTF-8 Plain Text
Language : English
Default : No
Forced : No
Menu
00:00:00.000 : en:Chapter 1
00:04:07.000 : en:Chapter 2
00:08:06.000 : en:Chapter 3
00:12:16.000 : en:Chapter 4
00:17:35.000 : en:Chapter 5
00:22:56.000 : en:Chapter 6
00:28:19.000 : en:Chapter 7
00:32:13.000 : en:Chapter 8
00:36:24.000 : en:Chapter 9
00:40:47.000 : en:Chapter 10
00:44:44.000 : en:Chapter 11
00:54:54.000 : en:Chapter 12
00:57:52.000 : en:Chapter 13
01:03:50.000 : en:Chapter 14
01:06:45.000 : en:Chapter 15
01:11:00.000 : en:Chapter 16
01:13:47.000 : en:Chapter 17
01:16:55.000 : en:Chapter 18
01:19:56.000 : en:Chapter 19
01:23:26.000 : en:Chapter 20
01:28:09.000 : en:Chapter 21
01:31:10.000 : en:Chapter 22
01:37:21.000 : en:Chapter 23
01:41:05.000 : en:Chapter 24
01:44:35.000 : en:Chapter 25
01:48:27.000 : en:Chapter 26
01:54:59.000 : en:Chapter 27
01:59:16.000 : en:Chapter 28
02:04:31.000 : en:Chapter 29
02:06:25.000 : en:Chapter 30
02:09:43.000 : en:Chapter 31
02:14:47.000 : en:Chapter 32
02:18:49.000 : en:Chapter 33
02:21:56.000 : en:Chapter 34
02:25:55.000 : en:Chapter 35
02:28:23.000 : en:Chapter 36
02:31:57.000 : en:Chapter 37
02:33:40.000 : en:Chapter 38
02:37:36.000 : en:Chapter 39
Скриншоты
Скачать

Скачать торрент!

Как скачивать? · Что такое торрент? · Рейтинг и ограничения

Сайт не распространяет и не хранит электронные версии произведений, а лишь предоставляет доступ к создаваемому пользователями каталогу ссылок на торрент-файлы, которые содержат только списки хеш-сумм

[Профиль] [ЛС]
Показать сообщения:    
Ответить на тему

Текущее время: Сегодня 00:21

Часовой пояс: GMT + 4



Вы не можете начинать темы
Вы не можете отвечать на сообщения
Вы не можете редактировать свои сообщения
Вы не можете удалять свои сообщения
Вы не можете голосовать в опросах
Вы не можете прикреплять файлы к сообщениям
Вы не можете скачивать файлы