Эверли / Everly (Джо Линч / Joe Lynch) [2014, США, Боевик, криминал, WEB-DL 720p] VO (BadCatStudio) + Sub Eng + Original Eng

Ответить на тему
 
Автор Сообщение

user ®

Стаж: 7 лет 7 месяцев

Сообщений: 20008

Пост Пост: #1 от 19-Фев-2015 17:18

[Цитировать]

Эверли / Everly Страна: США
Жанр: Боевик, криминал
Год выпуска: 2014
Продолжительность: 01:32:22
Перевод: Одноголосый закадровый Андрей Зверев/BadCatStudio
Cубтитры: английские
Оригинальная аудиодорожка: английский
Режиссер: Джо Линч / Joe Lynch
В ролях: Сальма Хайек, Дженнифер Бланк, Того Игава, Кэролайн Чикези, Габриэлла Райт, Энди МакДермотт, Аки Котабе, Уки Сертич, Масаси Фудзимото, Елена Гаврилович
Описание: Простая испаноязычная труженица Эверли попадает в рабство. Но, в отличии от остальных девушек, разобранных по борделям, она становится собственностью босса якудзы. Однажды ей предоставляется возможность вернуть свою жизнь и тут же куча желающих получить вознаграждение за её подкаченную попку, осаждает комнату 6Е: подручные босса, уголовники, шлюхи, маньяки, продажные копы и прочая сволочь встают на пути ожесточённой брюнетки к обнимашкам с дочуркой и старушкой матерью. В рот их всех чих-пых, сплёвывая кровь, заявляет отважная Эверли и поднимает автомат, чтобы продолжить неравный бой!

Сэмпл: http://sendfile.su/1087045
Качество видео: WEB-DL
Формат видео: MKV
Видео: MPEG4, 1280х532, 3841 Кбит/сек, 23,976 кадра/сек
Аудио: АС3, 192 Кбит/сек, 48,0 КГц, 2 канала
Аудио 2: АС3, 384 Кбит/сек, 48,0 КГц, 6 каналов
MediaInfo
Общее
Уникальный идентификатор : 187521597799047401418892482740992201298 (0x8D13589636428407A55C69A5F9E9D252)
Полное имя : F:\BadCatStudio\Видео\ФИЛЬМЫ\Everly.2014.WEB-DL.720p.Rus.Eng-BadCatStudio.mkv
Формат : Matroska
Версия формата : Version 4 / Version 2
Размер файла : 2,91 Гбайт
Продолжительность : 1 ч. 32 м.
Общий поток : 4507 Кбит/сек
Дата кодирования : UTC 2015-02-03 17:50:13
Программа кодирования : mkvmerge v7.5.0 ('Glass Culture') 32bit built on Jan 4 2015 16:37:25
Библиотека кодирования : libebml v1.3.1 + libmatroska v1.4.2
_STATISTICS_WRITING_APP : mkvmerge v7.5.0 ('Glass Culture') 32bit built on Jan 4 2015 16:37:25
_STATISTICS_WRITING_DATE_UTC : 2015-02-03 17:50:13
_STATISTICS_TAGS : BPS DURATION NUMBER_OF_FRAMES NUMBER_OF_BYTES
DURATION : 01:32:28.416000000
NUMBER_OF_FRAMES : 173388
NUMBER_OF_BYTES : 133161984
Видео
Идентификатор : 1
Формат : AVC
Формат/Информация : Advanced Video Codec
Профиль формата : Main@L3.1
Параметр CABAC формата : Нет
Параметр ReFrames формата : 2 кадра
Идентификатор кодека : V_MPEG4/ISO/AVC
Продолжительность : 1 ч. 32 м.
Битрейт : 3841 Кбит/сек
Ширина : 1280 пикселей
Высота : 532 пикселя
Соотношение сторон : 2,40:1
Режим частоты кадров : Постоянный
Частота кадров : 23,976 кадра/сек
Цветовое пространство : YUV
Субдискретизация насыщенности : 4:2:0
Битовая глубина : 8 бит
Тип развёртки : Прогрессивная
Бит/(Пиксели*Кадры) : 0.235
Размер потока : 2,48 Гбайт (85%)
Язык : English
Default : Да
Forced : Нет
Основные цвета : BT.709
Характеристики трансфера : BT.709
Коэффициенты матрицы : BT.709
Аудио #1
Идентификатор : 2
Формат : AC-3
Формат/Информация : Audio Coding 3
Расширение режима : CM (complete main)
Параметр Endianness формата : Big
Идентификатор кодека : A_AC3
Продолжительность : 1 ч. 32 м.
Вид битрейта : Постоянный
Битрейт : 192 Кбит/сек
Каналы : 2 канала
Расположение каналов : Front: L R
Частота : 48,0 КГц
Битовая глубина : 16 бит
Метод сжатия : С потерями
Размер потока : 127 Мбайт (4%)
Заголовок : VO [BadCatStudio]
Язык : Russian
Default : Да
Forced : Нет
Аудио #2
Идентификатор : 3
Формат : AC-3
Формат/Информация : Audio Coding 3
Расширение режима : CM (complete main)
Параметр Endianness формата : Big
Идентификатор кодека : A_AC3
Продолжительность : 1 ч. 32 м.
Вид битрейта : Постоянный
Битрейт : 384 Кбит/сек
Каналы : 6 каналов
Расположение каналов : Front: L C R, Side: L R, LFE
Частота : 48,0 КГц
Битовая глубина : 16 бит
Метод сжатия : С потерями
Размер потока : 254 Мбайт (9%)
Заголовок : Original
Язык : English
Default : Нет
Forced : Нет
Текст
Идентификатор : 4
Формат : UTF-8
Идентификатор кодека : S_TEXT/UTF8
Идентификатор кодека/Информация : UTF-8 Plain Text
Язык : English
Default : Нет
Forced : Нет
Меню
00:00:00.000 : en:Chapter 01
00:06:57.000 : en:Chapter 02
00:14:22.000 : en:Chapter 03
00:21:50.000 : en:Chapter 04
00:29:58.000 : en:Chapter 05
00:37:34.000 : en:Chapter 06
00:46:07.000 : en:Chapter 07
00:53:21.000 : en:Chapter 08
01:02:15.000 : en:Chapter 09
01:09:43.000 : en:Chapter 10
01:17:13.000 : en:Chapter 11
01:26:21.000 : en:Chapter 12
Скриншот c названием фильма Скриншоты
Скачать

Скачать торрент!

Как скачивать? · Что такое торрент? · Рейтинг и ограничения

Сайт не распространяет и не хранит электронные версии произведений, а лишь предоставляет доступ к создаваемому пользователями каталогу ссылок на торрент-файлы, которые содержат только списки хеш-сумм

[Профиль] [ЛС]
Показать сообщения:    
Ответить на тему

Текущее время: Сегодня 22:42

Часовой пояс: GMT + 4



Вы не можете начинать темы
Вы не можете отвечать на сообщения
Вы не можете редактировать свои сообщения
Вы не можете удалять свои сообщения
Вы не можете голосовать в опросах
Вы не можете прикреплять файлы к сообщениям
Вы не можете скачивать файлы