Джиперс Криперс 2 / Jeepers Creepers II (Виктор Сальва / Victor Salva) [2003, США, ужасы, триллер, BDRip 720p] Dub + 2x MVO + DVO + Original Eng + subs (Rus, Eng)

Ответить на тему
 
Автор Сообщение

user ®

Стаж: 7 лет 7 месяцев

Сообщений: 20008

Пост Пост: #1 от 19-Фев-2015 17:18

[Цитировать]

Джиперс Криперс 2 / Jeepers Creepers II- Год выпуска: 2003
Выпущено: США
Жанр: ужасы, триллер
Продолжительность: 01:44:04
Перевод: Профессиональный (полное дублирование)
+ Профессиональный (двухголосый, закадровый)
+ Профессиональный (многоголосый, закадровый) СТС
+ Профессиональный (многоголосый, закадровый) ТНТ
Оригинальная звуковая дорожка: English
Субтитры: Russian, English-Режиссер: Виктор Сальва / Victor Salva
В ролях: Рэй Уайз, Джонатан Брек, Гарикайи Мутамбирва, Эрик Неннингер, Никки Эйкокс, Трэвис Шиффнер, Лена Кардвэлл, Билли Аарон Браун, Марайа Делфино, Дайан Делано
О фильме: Раз в 23 года зловещий крылатый и когтистый монстр пробуждается от долгого сна, чтобы 23 дня насыщаться человеческой плотью и страхом своих жертв. На исходе последний день его кошмарного пира, и сегодня древнее неведомое зло ждет богатый улов - спортивная команда и очаровательные болельщицы, возвращающиеся с триумфальной игры.
Они одни в сломанном автобусе на пустынном шоссе, где не работают мобильные телефоны и неоткуда ждать помощи. На закате прожорливое исчадие ада начнет свою кровавую вакханалию. Сможет ли его добыча дожить до утра, или эта неуязвимая тварь убьет объятых ужасом тинейджеров одного за другим?-Cristi!
Релиз: на основе
Формат: MKV
Видео: 1280x544 at 23.976 fps, x264@L4.1, crf, ~8072 kbps avg
Аудио #1: Russian: 48 kHz, AC3, 3/2 (L,C,R,l,r) + LFE ch, ~448 kbps avg |Дубляж|
Аудио #2: Russian: 48 kHz, AC3, 3/2 (L,C,R,l,r) + LFE ch, ~448 kbps avg |Двухголосый закадровый|
Аудио #3: Russian: 48 kHz, AC3, 2/0 (L,R) ch, ~256 kbps avg |Многоголосый закадровый, СТС|
Аудио #4: Russian: 48 kHz, AC3, 2/0 (L,R) ch, ~256 kbps avg |Многоголосый закадровый, ТНТ|
Аудио #5: English: 48 kHz, DTS, 3/2 (L,C,R,l,r) + LFE ch, ~1509 kbps avg
Семпл-Source vs Encode
-
mInfo
Формат : Matroska
Версия формата : Version 4 / Version 2
Размер файла : 7,99 Гбайт
Продолжительность : 1 ч. 44 м.
Общий поток : 11,0 Мбит/сек
Название фильма : Jeepers Creepers II (2003) - Release for HDCLUB
Дата кодирования : UTC 2015-02-09 19:51:07
Программа кодирования : mkvmerge v6.1.0 ('Old Devil') built on Mar 2 2013 14:32:37
Библиотека кодирования : libebml v1.3.0 + libmatroska v1.4.0
Attachment : Yes
Видео
Идентификатор : 1
Формат : AVC
Формат/Информация : Advanced Video Codec
Профиль формата : High@L4.1
Параметр CABAC формата : Да
Параметр ReFrames формата : 12 кадров
Идентификатор кодека : V_MPEG4/ISO/AVC
Продолжительность : 1 ч. 44 м.
Битрейт : 7857 Кбит/сек
Ширина : 1280 пикселей
Высота : 544 пикселя
Соотношение сторон : 2,35:1
Режим частоты кадров : Постоянный
Частота кадров : 23,976 кадра/сек
Цветовое пространство : YUV
Субдискретизация насыщенности : 4:2:0
Битовая глубина : 8 бит
Тип развёртки : Прогрессивная
Бит/(Пиксели*Кадры) : 0.471
Размер потока : 5,71 Гбайт (71%)
Заголовок : Release for HDCLUB
Библиотека кодирования : x264 core 138 r2358kMod 9e941d1
Настройки программы : cabac=1 / ref=12 / deblock=1:-3:-3 / analyse=0x3:0x133 / me=umh / subme=11 / psy=1 / fade_compensate=0.00 / psy_rd=1.05:0.00 / mixed_ref=1 / me_range=16 / chroma_me=1 / trellis=2 / 8x8dct=1 / cqm=0 / deadzone=21,11 / fast_pskip=0 / chroma_qp_offset=-2 / threads=3 / lookahead_threads=1 / sliced_threads=0 / nr=0 / decimate=0 / interlaced=0 / bluray_compat=0 / constrained_intra=0 / bframes=8 / b_pyramid=2 / b_adapt=2 / b_bias=0 / direct=3 / weightb=1 / open_gop=0 / weightp=2 / keyint=250 / keyint_min=23 / scenecut=40 / intra_refresh=0 / rc=crf / mbtree=0 / crf=17.0000 / qcomp=0.80 / qpmin=0 / qpmax=69 / qpstep=4 / ip_ratio=1.20 / pb_ratio=1.10 / aq=1:0.80
Язык : English
Default : Да
Forced : Нет
Коэффициенты матрицы : BT.709
Аудио #1
Идентификатор : 2
Формат : AC-3
Формат/Информация : Audio Coding 3
Расширение режима : CM (complete main)
Параметр Endianness формата : Big
Идентификатор кодека : A_AC3
Продолжительность : 1 ч. 44 м.
Вид битрейта : Постоянный
Битрейт : 448 Кбит/сек
Каналы : 6 каналов
Расположение каналов : Front: L C R, Side: L R, LFE
Частота : 48,0 КГц
Битовая глубина : 16 бит
Метод сжатия : С потерями
Размер потока : 333 Мбайт (4%)
Заголовок : Dub
Язык : Russian
Default : Да
Forced : Нет
Аудио #2
Идентификатор : 3
Формат : AC-3
Формат/Информация : Audio Coding 3
Расширение режима : CM (complete main)
Параметр Endianness формата : Big
Идентификатор кодека : A_AC3
Продолжительность : 1 ч. 44 м.
Вид битрейта : Постоянный
Битрейт : 448 Кбит/сек
Каналы : 6 каналов
Расположение каналов : Front: L C R, Side: L R, LFE
Частота : 48,0 КГц
Битовая глубина : 16 бит
Метод сжатия : С потерями
Размер потока : 333 Мбайт (4%)
Заголовок : MVO
Язык : Russian
Default : Нет
Forced : Нет
Аудио #3
Идентификатор : 4
Формат : AC-3
Формат/Информация : Audio Coding 3
Расширение режима : CM (complete main)
Параметр Endianness формата : Big
Идентификатор кодека : A_AC3
Продолжительность : 1 ч. 44 м.
Вид битрейта : Постоянный
Битрейт : 256 Кбит/сек
Каналы : 2 канала
Расположение каналов : Front: L R
Частота : 48,0 КГц
Битовая глубина : 16 бит
Метод сжатия : С потерями
Размер потока : 191 Мбайт (2%)
Заголовок : MVO, СТС
Язык : Russian
Default : Нет
Forced : Нет
Аудио #4
Идентификатор : 5
Формат : AC-3
Формат/Информация : Audio Coding 3
Расширение режима : CM (complete main)
Параметр Endianness формата : Big
Идентификатор кодека : A_AC3
Продолжительность : 1 ч. 44 м.
Вид битрейта : Постоянный
Битрейт : 256 Кбит/сек
Каналы : 2 канала
Расположение каналов : Front: L R
Частота : 48,0 КГц
Битовая глубина : 16 бит
Метод сжатия : С потерями
Размер потока : 191 Мбайт (2%)
Заголовок : MVO, ТНТ
Язык : Russian
Default : Нет
Forced : Нет
Аудио #5
Идентификатор : 6
Формат : DTS
Формат/Информация : Digital Theater Systems
Режим : 16
Параметр Endianness формата : Big
Идентификатор кодека : A_DTS
Продолжительность : 1 ч. 44 м.
Вид битрейта : Постоянный
Битрейт : 1509 Кбит/сек
Каналы : 6 каналов
Расположение каналов : Front: L C R, Side: L R, LFE
Частота : 48,0 КГц
Битовая глубина : 24 бит
Метод сжатия : С потерями
Размер потока : 1,10 Гбайт (14%)
Язык : English
Default : Нет
Forced : Нет
Текст #1
Идентификатор : 7
Формат : UTF-8
Идентификатор кодека : S_TEXT/UTF8
Идентификатор кодека/Информация : UTF-8 Plain Text
Язык : Russian
Default : Нет
Forced : Нет
Текст #2
Идентификатор : 8
Формат : UTF-8
Идентификатор кодека : S_TEXT/UTF8
Идентификатор кодека/Информация : UTF-8 Plain Text
Язык : English
Default : Нет
Forced : Нет
Меню
00:00:00.000 : en:Scary Scarecrow
00:04:57.047 : en:The Dog Knows
00:06:16.167 : en:Day 22's Victim
00:08:02.816 : en:"Down and Disabled"
00:12:59.570 : en:Symbolic Weapon
00:15:24.382 : en:Break Before the Storm
00:18:03.582 : en:Memories of Hitchcock
00:20:42.450 : en:Futile Warning
00:23:17.021 : en:Sharp Teeth
00:26:26.877 : en:A Flare for Killing
00:28:59.988 : en:So Long, Coach
00:30:46.845 : en:"What Was It?"
00:32:29.197 : en:The Tension Rises
00:35:43.350 : en:Picking Its Prey
00:39:45.842 : en:A Dead Boy Speaks
00:42:34.719 : en:The Smell of Fear
00:45:32.396 : en:Making Contact
00:48:45.339 : en:Skewering a Beast
00:50:50.631 : en:No Exit
00:55:25.739 : en:A Wing and No Prayer
00:57:42.834 : en:He Lost His Head!
01:00:07.395 : en:Time to Split
01:05:35.431 : en:Run for Your Life!
01:09:30.958 : en:"You Can't Stop It"
01:11:22.945 : en:"Don't Make Me Go!"
01:13:01.544 : en:A Show of Power
01:16:24.872 : en:Going Creep Shooting
01:20:44.923 : en:"A Big Ugly Bug"
01:24:45.247 : en:Life-or-Death Battle
01:29:41.418 : en:"It Isn't Dead"
01:33:48.748 : en:Bat Out of Hell
01:38:02.752 : en:End Credits
-
Скачать

Скачать торрент!

Как скачивать? · Что такое торрент? · Рейтинг и ограничения

Сайт не распространяет и не хранит электронные версии произведений, а лишь предоставляет доступ к создаваемому пользователями каталогу ссылок на торрент-файлы, которые содержат только списки хеш-сумм

[Профиль] [ЛС]
Показать сообщения:    
Ответить на тему

Текущее время: Сегодня 00:03

Часовой пояс: GMT + 4



Вы не можете начинать темы
Вы не можете отвечать на сообщения
Вы не можете редактировать свои сообщения
Вы не можете удалять свои сообщения
Вы не можете голосовать в опросах
Вы не можете прикреплять файлы к сообщениям
Вы не можете скачивать файлы