Бешеные / Бешенство / Kalevet / Rabies (Аарон Кешелс / Aharon Keshales, Навот Папушадо / Navot Papushado) [2010, Израиль, триллер, ужасы, BDRemux 1080p] VO + Original (Heb) + Sub (Rus)

Ответить на тему
 
Автор Сообщение

user ®

Стаж: 7 лет 7 месяцев

Сообщений: 20008

Пост Пост: #1 от 19-Фев-2015 17:18

[Цитировать]

Бешеные / Бешенство / Kalevet / Rabies
Страна: Израиль
Жанр: триллер, ужасы
Год выпуска: 2010
Продолжительность: 01:33:04
Перевод: Одноголосый закадровый. Озвучка - den904, перевод - Spartak 2005
Внимание: присутствует ненормативная лексика!
Оригинальная аудиодорожка: иврит
Cубтитры: русские (Spartak 2005)
Субтитры слегка подредактированы. Нецензурные слова отсутствуют!-Режиссер: Аарон Кешелс / Aharon Keshales, Навот Папушадо / Navot Papushado
В ролях: Яэль Гробглас (Shir), Аня Букштейн (Adi), Ран Данкер (Mikey), Офер Шехтер (Pini), Дэнни Гева (Yuval), Лиор Ашкенази (Danny), Генри Давид (Ofer), Лиат Харлев (Tali), Менаш Ной (Menashe), Эфрат Боймолд (Rona), Дрор Керен (Vacationist), Карин Офир (Vacationist's Wife), Эфрат Райтен (Shena), Ярон Мотола (Maniac)-Описание: Кровавая история разворачивается в дремучем израильском лесу. Действующие лица: две молодые теннисистки, два их приятеля, похотливый коп со своим тормознутым напарником, брат и сестра, познавшие грех инцеста, лесник со своей женой, заблудившаяся семейка, супруга полицейского, собака и один маньяк...-СЭМПЛ
Тип релиза: BDRemux 1080p
Исходник: ремукс с немецкого блюрея из личной коллекции Vovec-800. Спасибо.
Контейнер: MKV
Видео: 1920x1080p / 23.976 fps / 16:9 / High Profile 4.1 / AVC / ~ 19.6 Mbps
Аудио 1: AC3 / 192 Kbps / 2.0 / 48 kHz / Russian / VO - den904
Аудио 2: AC3 / 448 Kbps / 5.1 / 48 kHz / Hebrew / original
Формат субтитров: softsub (SRT)-IMDB * КиноПоиск
Примечание
1. Версия с немецкого Blu-Ray короче версии с испанского DVD:
[url=http://***/forum/viewtopic.php?t=4870786]http://***/forum/viewtopic.php?t=4870786[/url]
примерно на 30 сек. Удалены 5 фрагментов, в сумме - 811 кадров (40 + 252 + 229 + 195 + 95), без учета разного количества черных кадров в начале и конце фильма в этих версиях.
Ничего существенного в удаленных фрагментах, на мой взгляд, нет.
2. DTS оригинальной дороги на Blu-Ray оказался более, чем странный. Голоса актеров, помимо центрального канала, слышатся в обоих фронтальных. К тому же, в центральном канале присутствуют звуки из фронтальных каналов, которых быть не должно, если сравнивать с AC3 испанского DVD.
Что касается русской 5 (?!) канальной дорожки, то таковая оказалась обычным стерео с пустыми тремя каналами. Канала LFE не было вообще.
В итоге оригинальная (иврит) и русская дороги (den904) были взяты с раздачи с испанского DVD (спасибо Lucian666), перетянуты и синхронизированы под блюрей.
MediaInfo
General
Complete name : Kalevet.Rabies.2010.BDRemux.1080p.VO.mkv
Format : Matroska
Format version : Version 2
File size : 13.4 GiB
Duration : 1h 33mn
Overall bit rate mode : Variable
Overall bit rate : 20.6 Mbps
Encoded date : UTC 2015-02-18 16:38:32
Writing application : mkvmerge v5.8.0 ('No Sleep / Pillow') built on Sep 2 2012 15:37:04
Writing library : libebml v1.2.3 + libmatroska v1.3.0
Video
ID : 1
Format : AVC
Format/Info : Advanced Video Codec
Format profile : High@L4.1
Format settings, CABAC : Yes
Format settings, ReFrames : 3 frames
Format settings, GOP : M=3, N=12
Codec ID : V_MPEG4/ISO/AVC
Duration : 1h 33mn
Bit rate mode : Variable
Bit rate : 19.6 Mbps
Maximum bit rate : 25.0 Mbps
Width : 1 920 pixels
Height : 1 080 pixels
Display aspect ratio : 16:9
Frame rate mode : Constant
Frame rate : 23.976 fps
Standard : NTSC
Color space : YUV
Chroma subsampling : 4:2:0
Bit depth : 8 bits
Scan type : Progressive
Bits/(Pixel*Frame) : 0.394
Stream size : 12.7 GiB (95%)
Title : Kalevet / Rabies 2010
Default : Yes
Forced : No
Color primaries : BT.709
Transfer characteristics : BT.709
Matrix coefficients : BT.709
Color range : Limited
Audio #1
ID : 2
Format : AC-3
Format/Info : Audio Coding 3
Mode extension : CM (complete main)
Format settings, Endianness : Big
Codec ID : A_AC3
Duration : 1h 33mn
Bit rate mode : Constant
Bit rate : 192 Kbps
Channel(s) : 2 channels
Channel positions : Front: L R
Sampling rate : 48.0 KHz
Bit depth : 16 bits
Compression mode : Lossy
Stream size : 128 MiB (1%)
Title : RUS AC3 192 Kbps 2ch VO den904
Language : Russian
Default : Yes
Forced : No
Audio #2
ID : 3
Format : AC-3
Format/Info : Audio Coding 3
Mode extension : CM (complete main)
Format settings, Endianness : Big
Codec ID : A_AC3
Duration : 1h 33mn
Bit rate mode : Constant
Bit rate : 448 Kbps
Channel(s) : 6 channels
Channel positions : Front: L C R, Side: L R, LFE
Sampling rate : 48.0 KHz
Bit depth : 16 bits
Compression mode : Lossy
Stream size : 298 MiB (2%)
Title : HEBREW AC3 448 Kbps 6ch original
Language : Hebrew
Default : No
Forced : No
Text
ID : 4
Format : UTF-8
Codec ID : S_TEXT/UTF8
Codec ID/Info : UTF-8 Plain Text
Title : RUS Sub Spartak 2005
Language : Russian
Default : No
Forced : No
Menu
00:00:00.000 : :Chapter 01
00:06:02.987 : :Chapter 02
00:13:39.068 : :Chapter 03
00:17:32.593 : :Chapter 04
00:23:19.523 : :Chapter 05
00:29:25.138 : :Chapter 06
00:36:07.957 : :Chapter 07
00:40:33.931 : :Chapter 08
00:45:52.332 : :Chapter 09
00:52:24.724 : :Chapter 10
00:59:33.528 : :Chapter 11
01:04:53.973 : :Chapter 12
01:11:33.247 : :Chapter 13
01:14:38.474 : :Chapter 14
01:21:49.446 : :Chapter 15
01:28:28.553 : :Chapter 16
Скриншот с названием Скриншоты
Скачать

Скачать торрент!

Как скачивать? · Что такое торрент? · Рейтинг и ограничения

Сайт не распространяет и не хранит электронные версии произведений, а лишь предоставляет доступ к создаваемому пользователями каталогу ссылок на торрент-файлы, которые содержат только списки хеш-сумм

[Профиль] [ЛС]
Показать сообщения:    
Ответить на тему

Текущее время: Сегодня 07:54

Часовой пояс: GMT + 4



Вы не можете начинать темы
Вы не можете отвечать на сообщения
Вы не можете редактировать свои сообщения
Вы не можете удалять свои сообщения
Вы не можете голосовать в опросах
Вы не можете прикреплять файлы к сообщениям
Вы не можете скачивать файлы